<?xml version="1.0" standalone="no"?>
<!DOCTYPE svg PUBLIC "-//W3C//DTD SVG 1.1//EN" "http://www.w3.org/Graphics/SVG/1.1/DTD/svg11.dtd" >
<svg xmlns="http://www.w3.org/2000/svg" xmlns:xlink="http://www.w3.org/1999/xlink" version="1.1">
<metadata>
Created by FontForge 20161013 at Sat Jul 21 10:31:56 2012
 By ,,,
Copyright ?(c) 2003 Middle East Television Network. All rights reserved. AlHurra and AlHurra Font family, in all their forms, styl
</metadata>
<defs>
<font id="AlHurraTxtBold" horiz-adv-x="0" >
  <font-face 
    font-family="AlHurraTxtBold"
    font-weight="700"
    font-stretch="normal"
    units-per-em="2048"
    panose-1="0 0 4 0 0 0 0 0 0 0"
    ascent="1638"
    descent="-410"
    bbox="-198 -1384 2863 2199.94"
    underline-thickness="20"
    underline-position="-930"
    unicode-range="U+0020-FEFC"
  />
<missing-glyph horiz-adv-x="1024" 
d="M128 0v1254h768v-1254h-768zM256 128h512v998h-512v-998z" />
    <glyph glyph-name="uE818" unicode="&#x651;&#x64b;" 
d="M409 1458q-57 -87 -142 -87q-60 0 -85 53q-18 39 -18 67q0 34 22 89q25 65 53 65q20 0 20 -21q0 -8 -12 -48q-14 -33 -14 -55q0 -41 61 -41q56 10 75 43q18 41 35 82q28 60 48 60q18 0 18 -20l-4 -25l-10 -59q0 -38 39 -44q31 0 40 24q5 14 10 33q8 11 10 21t6 25
q15 56 31 59q22 0 22 -28q0 -21 -6 -55l-8 -29l-2 -11q-40 -145 -118 -145q-42 0 -71 47zM180 1800l386 150l-21 -91l-393 -150zM221 2009l385 150l-20 -89l-395 -152z" />
    <glyph glyph-name="uFC5E" unicode="&#x651;&#x64c;" arabic-form="isolated" 
d="M404 1401q-57 -87 -142 -87q-60 0 -85 53q-18 38 -18 66q0 34 22 90q25 64 53 64q20 0 20 -20q0 -8 -12 -49q-15 -32 -15 -54q0 -41 61 -41q56 10 76 43q17 40 35 81q27 61 48 61q18 0 18 -21l-4 -24l-10 -59q0 -38 38 -44q31 0 41 24q5 13 10 33q8 11 10 22l6 24
q15 56 30 59q23 0 23 -29q0 -21 -6 -54l-8 -29l-2 -12q-40 -144 -118 -144q-43 0 -71 47zM553 2125q63 0 63 -84q0 -66 -48 -132q-59 -79 -132 -115q-82 -41 -209 -79q-54 -16 -81 -16q-33 0 -33 16q0 11 30 30q20 12 40 25q42 31 48 36q49 40 49 69q0 24 -39 24
q-33 -3 -91 -18q0 51 51.5 86.5t88.5 35.5q75 0 75 -71q0 -39 -26 -103q12 0 90.5 48t95.5 73q-57 25 -57 97q0 78 85 78z" />
    <glyph glyph-name="uFC5F" unicode="&#x651;&#x64d;" arabic-form="isolated" 
d="M458 1920q-57 -87 -142 -87q-60 0 -85 53q-18 39 -18 67q0 34 21 89q26 65 54 65q20 0 20 -21q0 -8 -12 -48q-15 -33 -15 -55q0 -41 61 -41q56 11 75 43l36 82q27 60 48 60q18 0 18 -20l-5 -25l-9 -59q0 -38 38 -44q31 0 41 24q5 14 10 33q8 11 10 21t6 25q15 56 30 59
q23 0 23 -28q0 -21 -6 -55l-8 -29l-2 -11q-40 -144 -118 -144q-43 0 -71 46zM190 1421l385 150l-20 -91l-393 -150zM231 1630l385 150l-21 -89l-395 -152z" />
    <glyph glyph-name="uFC60" unicode="&#x651;&#x64e;" arabic-form="isolated" 
d="M395 1415q-57 -87 -142 -87q-60 0 -85 53q-18 38 -18 66q0 34 22 90q25 64 53 64q20 0 20 -20q0 -8 -12 -49q-15 -32 -15 -54q0 -41 61 -41q56 10 76 43q17 40 35 81q27 61 48 61q18 0 18 -21l-4 -24l-10 -59q0 -38 38 -44q31 0 41 24q5 13 10 33q8 11 10 22l6 24
q15 56 30 59q23 0 23 -29q0 -21 -6 -54l-8 -29l-2 -12q-40 -144 -118 -144q-43 0 -71 47zM207 1769l386 150l-21 -91l-393 -150z" />
    <glyph glyph-name="uFC61" unicode="&#x651;&#x64f;" arabic-form="isolated" 
d="M409 1433q-57 -87 -142 -87q-60 0 -85 53q-18 39 -18 67q0 34 22 89q25 65 53 65q20 0 20 -21q0 -8 -12 -48q-14 -33 -14 -55q0 -41 61 -41q56 10 75 43q18 41 35 82q28 60 48 60q18 0 18 -20l-4 -25l-10 -59q0 -38 39 -44q31 0 40 24q5 14 10 33q8 11 10 21t6 25
q15 56 31 59q22 0 22 -28q0 -21 -6 -55l-8 -29l-2 -11q-40 -145 -118 -145q-42 0 -71 47zM547 2187q63 0 63 -85q0 -71 -58 -145q-53 -68 -122 -100q-81 -38 -209 -77q-13 -8 -37 -8q-22 0 -22 12q0 25 99 71q93 42 158 83q87 54 100 75q-65 16 -65 67q0 34 30 70.5t63 36.5
z" />
    <glyph glyph-name="uFC62" unicode="&#x651;&#x650;" arabic-form="isolated" 
d="M403 1689q-57 -87 -142 -87q-60 0 -85 53q-18 38 -18 66q0 34 22 90q25 64 53 64q20 0 20 -20q0 -8 -12 -49q-14 -32 -14 -54q0 -41 61 -41q56 10 75 43q18 41 35 81q28 61 48 61q18 0 18 -21l-4 -24l-10 -59q0 -38 39 -44q31 0 40 24q5 13 10 33q8 11 10 22l6 24
q15 56 31 59q22 0 22 -29q0 -21 -6 -54l-8 -29l-2 -12q-40 -144 -118 -144q-42 0 -71 47zM168 1405l385 150l-20 -89l-395 -152z" />
    <glyph glyph-name="uFDF2" unicode="&#xfedf;&#xfee0;&#xfeea;" horiz-adv-x="2301" arabic-form="isolated" 
d="M531 612q-63 0 -135.5 -73.5t-120.5 -206.5h402q-25 92 -37 133q-14 43 -35 86q-14 27 -35 47q-16 14 -39 14zM1427 1380q-5 -11 -10.5 -19.5t-22.5 -25.5q-17 -16 -36 -24q-22 -11 -52 -11q-160 9 -160 150v26v36q0 45 7 71l103 124q-3 -12 -7 -51q-3 -42 -3 -63v-60
v-38q0 -19 5 -29t12 -14.5t9 -6.5q19 -10 57 -5q41 5 41 71q2 20 2 57v65l14 14q46 41 87 90v-197q0 -45 21 -66q12 -12 42 -12q67 21 67 88v114l12 12q36 31 86 95v-203q0 -64 -12 -106q-12 -44 -34 -77q-25 -33 -50 -47q-28 -15 -59 -15q-81 0 -119 57zM1599 336h276v936
l326 201v-1473h-1450q-15 74 -48 217l-61 -217h-590q-16 -2 -26 14q-13 19 -15 39q-4 29 -4 45v39q6 90 33 182q24 93 67 187q37 82 101 172q57 80 131 143q70 62 158 99q86 34 178 34q69 0 123 -59q55 -66 94 -152q37 -86 63 -200q25 -107 37 -207h282v663l325 200v-863z
" />
    <glyph glyph-name="uFEF5" unicode="&#xfedf;&#xfe82;" horiz-adv-x="1245" arabic-form="isolated" 
d="M1157 1491v-864q0 -62 -10 -150q-9 -84 -43 -160q-35 -77 -97 -149q-61 -74 -163 -129q-101 -53 -256 -88q-146 -33 -363 -33l-227 334q26 0 49 -2q45 -4 69 -4q25 -2 70 -2q23 -2 47 -2q117 0 219 16q11 231 -180 643l-133 293l293 240q33 -78 76 -197q94 -256 139 -420
q61 -223 61 -375q0 -32 -4 -77q127 114 127 260v665zM840 1887q0 -11 -2 -24.5t-6 -43.5q0 -15 -3 -41q-4 -11 -4 -25q-8 -37 -17 -75q-11 -36 -34 -60q-28 -29 -66 -44q-40 -19 -117 -30l-452 -60q-77 -8 -113 -28q-34 -19 -51 -42q-17 -26 -19 -38q-2 -7 -4.5 -11t-8.5 -2
q-11 2 -14 55t1 81q2 40 15 77q15 36 39.5 60.5t69.5 45.5q45 19 111 26q155 19 279 38q104 13 179 32q64 17 98 43q28 27 34 66h85z" />
    <glyph glyph-name="uFEF6" unicode="&#xfee0;&#xfe82;" horiz-adv-x="1275" arabic-form="final" 
d="M946 115q-227 -197 -729 -197l-227 334q26 0 49 -2q45 -4 69 -4q25 -2 70 -2q22 -2 47 -2q117 0 219 16q10 231 -180 643l-133 293l293 240q32 -78 75 -197q95 -256 140 -420q61 -223 61 -375q0 -32 -4 -77q127 114 127 260v665l326 201v-965q0 -51 2 -73q0 -35 6 -60
q6 -26 20 -41q13 -16 37 -16h129v-336h-241q-54 0 -98 35t-58 80zM840 1887q0 -11 -2 -24.5t-6 -43.5q0 -15 -3 -41q-4 -11 -4 -25q-8 -37 -17 -75q-11 -36 -34 -60q-28 -29 -66 -44q-40 -19 -117 -30l-452 -60q-77 -8 -113 -28q-34 -19 -51 -42q-17 -26 -19 -38
q-2 -7 -4.5 -11t-8.5 -2q-11 2 -14 55t1 81q2 40 15 77q15 36 39.5 60.5t69.5 45.5q45 19 111 26q155 19 279 38q104 13 179 32q64 17 98 43q28 27 34 66h85z" />
    <glyph glyph-name="uFEF7" unicode="&#xfedf;&#xfe84;" horiz-adv-x="1245" arabic-form="isolated" 
d="M1157 1491v-864q0 -62 -10 -150q-8 -84 -43 -160q-35 -77 -96 -149q-62 -74 -164 -129q-101 -53 -256 -88q-146 -33 -363 -33l-227 334q27 0 49 -2q45 -4 70 -4q24 -2 69 -2q23 -2 48 -2q116 0 219 16q10 231 -181 643l-133 293l293 240q33 -78 76 -197q94 -256 139 -420
q62 -223 62 -375q0 -32 -4 -77q127 114 127 260v665zM162 1682q-32 16 -56 40q-23 24 -33 44q-10 24 -10 46q-4 22 0 42q2 51 37 105q34 56 82 98q50 44 110 68q58 24 122 14q88 -14 130 -40l-44 -225q-58 35 -114 35q-76 8 -144 -89q6 -6 22 -18q26 -16 62 -22
q72 -10 347 84l-129 -278q-182 -26 -356 -152q-78 -56 -135 -119l16 193q14 102 93 174z" />
    <glyph glyph-name="uFEF8" unicode="&#xfee0;&#xfe84;" horiz-adv-x="1275" arabic-form="final" 
d="M946 115q-227 -197 -729 -197l-227 334q27 0 49 -2q45 -4 70 -4q24 -2 69 -2q23 -2 48 -2q116 0 219 16q10 231 -181 643l-133 293l293 240q33 -78 76 -197q94 -256 139 -420q62 -223 62 -375q0 -32 -4 -77q127 114 127 260v665l325 201v-965q0 -51 2 -73q0 -35 6 -60
q7 -26 21 -41q12 -16 37 -16h129v-336h-242q-53 0 -97 35t-59 80zM162 1682q-32 16 -56 40q-22 24 -32 44q-10 24 -10 46q-4 22 0 42q2 51 36 105q34 56 82 98q50 44 110 68q58 24 122 14q88 -14 131 -40l-45 -225q-58 35 -114 35q-76 8 -144 -89q6 -6 22 -18q26 -16 62 -22
q72 -10 347 84l-128 -278q-183 -26 -357 -152q-78 -56 -134 -119l16 193q14 102 92 174z" />
    <glyph glyph-name="uFEF9" unicode="&#xfedf;&#xfe88;" horiz-adv-x="1245" arabic-form="isolated" 
d="M1157 1491v-864q0 -62 -10 -150q-8 -84 -43 -160q-35 -77 -96 -149q-62 -74 -164 -129q-101 -53 -256 -88q-146 -33 -363 -33l-227 334q27 0 49 -2q45 -4 70 -4q24 -2 69 -2q23 -2 48 -2q116 0 219 16q10 231 -181 643l-133 293l293 240q33 -78 76 -197q94 -256 139 -420
q62 -223 62 -375q0 -32 -4 -77q127 114 127 260v665zM399 -626q-32 16 -56 40q-23 24 -33 44q-10 24 -10 46q-4 22 0 42q2 51 37 105q34 56 82 98q50 44 110 68q58 24 122 14q88 -14 130 -40l-44 -225q-58 35 -114 35q-76 8 -144 -89q6 -6 22 -18q26 -16 62 -22
q72 -10 347 84l-129 -278q-182 -26 -356 -152q-78 -56 -135 -119l16 193q14 102 93 174z" />
    <glyph glyph-name="uFEFA" unicode="&#xfee0;&#xfe88;" horiz-adv-x="1275" arabic-form="final" 
d="M946 115q-227 -197 -729 -197l-227 334q27 0 49 -2q45 -4 70 -4q24 -2 69 -2q23 -2 48 -2q116 0 219 16q10 231 -181 643l-133 293l293 240q33 -78 76 -197q94 -256 139 -420q62 -223 62 -375q0 -32 -4 -77q127 114 127 260v665l325 201v-965q0 -51 2 -73q0 -35 6 -60
q7 -26 21 -41q12 -16 37 -16h129v-336h-242q-53 0 -97 35t-59 80zM399 -626q-32 16 -56 40q-22 24 -32 44q-10 24 -10 46q-4 22 0 42q2 51 36 105q34 56 82 98q50 44 110 68q58 24 122 14q88 -14 131 -40l-45 -225q-58 35 -114 35q-76 8 -144 -89q6 -6 22 -18q26 -16 62 -22
q72 -10 347 84l-128 -278q-183 -26 -357 -152q-78 -56 -134 -119l16 193q14 102 92 174z" />
    <glyph glyph-name="uFEFB" unicode="&#xfedf;&#xfe8e;" horiz-adv-x="1245" arabic-form="isolated" 
d="M1157 1491v-864q0 -62 -10 -150q-8 -84 -43 -160q-35 -77 -96 -149q-62 -74 -164 -129q-101 -53 -256 -88q-146 -33 -363 -33l-227 334q27 0 49 -2q45 -4 70 -4q24 -2 69 -2q23 -2 48 -2q116 0 219 16q10 231 -181 643l-133 293l293 240q33 -78 76 -197q94 -256 139 -420
q62 -223 62 -375q0 -32 -4 -77q127 114 127 260v665z" />
    <glyph glyph-name="uFEFC" unicode="&#xfee0;&#xfe8e;" horiz-adv-x="1275" arabic-form="final" 
d="M946 115q-227 -197 -729 -197l-227 334q27 0 49 -2q45 -4 70 -4q24 -2 69 -2q23 -2 48 -2q116 0 219 16q10 231 -181 643l-133 293l293 240q33 -78 76 -197q94 -256 139 -420q62 -223 62 -375q0 -32 -4 -77q127 114 127 260v665l325 201v-965q0 -51 2 -73q0 -35 6 -60
q7 -26 21 -41q12 -16 37 -16h129v-336h-242q-53 0 -97 35t-59 80z" />
    <glyph glyph-name="u0622" unicode="&#x622;" horiz-adv-x="499" arabic-form="isolated" 
d="M429 1522v-1405l-318 -203v1405zM731 1924q0 -11 -2 -24.5t-6 -43.5q0 -15 -3 -41q-4 -11 -4 -25q-8 -37 -17 -75q-11 -36 -34 -60q-28 -29 -66 -44q-40 -19 -117 -30l-452 -60q-77 -8 -113 -28q-34 -19 -51 -42q-17 -26 -19 -38q-2 -7 -4.5 -11t-8.5 -2q-11 2 -14 55
t1 81q2 40 15 77q15 36 39.5 60.5t69.5 45.5q45 19 111 26q155 19 279 38q104 13 179 32q64 17 98 43q28 27 34 66h85z" />
    <glyph glyph-name="u0623" unicode="&#x623;" horiz-adv-x="499" arabic-form="isolated" 
d="M429 1522v-1405l-318 -203v1405zM107 1740q-32 16 -56 40q-22 24 -32 44q-10 24 -10 46q-4 22 0 42q2 51 36 105q34 56 82 98q50 44 110 68q59 24 123 14q88 -14 130 -40l-44 -225q-58 35 -114 35q-77 8 -145 -89q6 -6 22 -18q26 -16 63 -22q72 -10 346 84l-128 -278
q-182 -26 -357 -152q-78 -56 -134 -119l16 193q14 102 92 174z" />
    <glyph glyph-name="u0624" unicode="&#x624;" horiz-adv-x="1028" arabic-form="isolated" 
d="M554 948q78 0 143 -37q64 -39 109 -98q43 -55 78 -137q26 -68 51 -158q16 -72 27 -156q8 -67 8 -133q0 -94 -17 -213q-16 -106 -59 -229q-41 -117 -110.5 -231.5t-176.5 -227.5l-284 258q84 66 141 123q43 47 94 115q33 45 62 100l41 88q-68 -8 -168 -8q-84 0 -172 16
q-84 17 -144 46q-63 30 -82 84q-14 34 -8 116q2 70 29 164q18 76 63 180q41 97 97 168q53 72 127 123q71 47 151 47zM364 356q8 -14 28 -28q27 -19 60 -27q41 -10 100 -12q61 -2 150 6q-5 45 -13 104q-8 58 -30 107q-21 45 -54 82q-32 33 -78 33q-28 0 -61 -33
q-37 -37 -61 -78q-27 -43 -39 -88q-15 -43 -2 -66zM283 1280q-37 19 -60 41q-20 21 -31 45q-8 21 -12 47q0 29 2 43q2 52 37 107q35 57 84 100q51 45 113 70q59 24 125 14q90 -14 133 -41l-45 -229q-60 35 -117 35q-78 8 -148 -90q7 -7 23 -19q27 -16 63 -22q74 -11 355 86
l-131 -285q-187 -27 -365 -156q-80 -57 -137 -121l16 197q15 104 95 178z" />
    <glyph glyph-name="u0625" unicode="&#x625;" horiz-adv-x="499" arabic-form="isolated" 
d="M429 1522v-1405l-318 -203v1405zM47 -623q-32 16 -56 40q-22 24 -32 44q-10 24 -10 46q-4 22 0 42q2 51 36 105q34 56 82 98q50 44 110 68q59 24 123 14q88 -14 130 -40l-44 -225q-58 35 -114 35q-77 8 -145 -89q6 -6 22 -18q26 -16 63 -22q72 -10 346 84l-128 -278
q-182 -26 -357 -152q-78 -56 -134 -119l16 193q14 102 92 174z" />
    <glyph glyph-name="u0626" unicode="&#x626;" horiz-adv-x="1456" arabic-form="isolated" 
d="M594 362q4 109 45 213q43 107 113 195q68 86 154 141q88 54 174 54q24 0 67 -7q45 -6 86 -32q41 -29 72 -80q31 -55 31 -154v-26q-2 -15 -2 -45q0 -19 -5 -48q-2 -14 -2 -32q-51 73 -112 94q-64 20 -127 12q-64 -8 -123 -43t-100 -76q84 -20 165 -51q89 -35 166 -80
q78 -49 129 -110q52 -60 52 -137q0 -109 -50 -220q-53 -114 -143 -200q-96 -90 -223 -148q-129 -57 -291 -57q-172 0 -295 57q-125 58 -207 144t-123 188q-39 100 -43 192q-2 84 23 181q24 94 67 176q41 84 97 155q49 66 110 115l119 -115l-63 -94q-29 -47 -43 -88
q-17 -47 -25 -92q-8 -41 -8 -104q0 -90 39 -154q41 -68 100 -109q57 -38 133 -61q70 -20 146 -20q53 0 108 12q58 16 105 39q55 28 90 59q41 35 61 76q-29 20 -57.5 35.5t-69.5 32t-62.5 24.5t-80 27.5t-78.5 27.5q-63 25 -89 50.5t-30 82.5zM13 1032q-37 19 -60 41
q-20 21 -31 45q-8 21 -12 47q0 29 2 43q2 52 37 107q35 57 84 100q51 45 113 70q59 24 125 14q90 -14 133 -41l-45 -229q-60 35 -117 35q-78 8 -147 -90q6 -7 22 -19q27 -16 64 -22q73 -11 354 86l-131 -285q-187 -27 -365 -156q-80 -57 -137 -121l16 197q15 104 95 178z
" />
    <glyph glyph-name="u0627" unicode="&#x627;" horiz-adv-x="499" arabic-form="isolated" 
d="M429 1522v-1405l-317 -203v1405z" />
    <glyph glyph-name="u0628" unicode="&#x628;" horiz-adv-x="1888" arabic-form="isolated" 
d="M1198 -358l-227 -228l-225 228l225 227zM1661 856q158 -317 158 -584q0 -125 -27 -272h-1421q-180 0 -278.5 86t-98.5 246q0 69 25 141q24 70 63 139q47 78 88 133q49 66 100 119l140 -116q-33 -35 -56 -76q-26 -45 -45 -90q-20 -52 -28 -86q-11 -47 -11 -72
q0 -88 138 -88h1122q-53 131 -162 301l254 295z" />
    <glyph glyph-name="u0629" unicode="&#x629;" horiz-adv-x="935" arabic-form="isolated" 
d="M865 1407l-227 -227l-228 227l228 227zM160 1634l228 -227l-228 -227l-227 227zM431 1120q94 -71 125 -96q73 -61 143 -137q63 -70 121 -170q49 -92 49 -193q0 -88 -37 -186q-35 -94 -102 -180q-68 -84 -160 -135q-96 -54 -205 -54q-65 0 -96 2q-45 2 -88 17
q-45 16 -76 41q-37 26 -59 69q-39 82 -39 164q0 21 4 82q4 53 16 96q10 47 41 117q31 66 76 135zM271 397q20 -37 63 -51q48 -16 99 -10q53 4 106 35q49 26 82 88q-8 26 -23.5 55t-28.5 47.5t-40 47t-37 39.5t-44 42t-38 35q-16 -20 -59 -84q-37 -55 -53 -90
q-23 -47 -31 -84q-10 -43 4 -70z" />
    <glyph glyph-name="u062A" unicode="&#x62a;" horiz-adv-x="1888" arabic-form="isolated" 
d="M727 1274l228 -227l-228 -228l-225 228zM1430 1047l-228 -228l-225 228l225 227zM1661 856q158 -317 158 -584q0 -125 -27 -272h-1421q-180 0 -278.5 86t-98.5 246q0 69 25 141q24 70 63 139q47 78 88 133q49 66 100 119l140 -116q-33 -35 -56 -76q-26 -45 -45 -90
q-20 -52 -28 -86q-11 -47 -11 -72q0 -88 138 -88h1122q-53 131 -162 301l254 295z" />
    <glyph glyph-name="u062B" unicode="&#x62b;" horiz-adv-x="1880" arabic-form="isolated" 
d="M1661 856q158 -317 158 -584q0 -125 -27 -272h-1421q-180 0 -278.5 86t-98.5 246q0 69 25 141q24 70 63 139q47 78 88 133q49 66 100 119l140 -116q-33 -35 -56 -76q-26 -45 -45 -90q-20 -52 -28 -86q-11 -47 -11 -72q0 -88 138 -88h1122q-53 131 -162 301l254 295z
M692 1262l228 -228l-228 -227l-227 227zM952 1554l209 -208l-209 -211l-210 211zM1436 1034l-228 -227l-227 227l227 228z" />
    <glyph glyph-name="u062C" unicode="&#x62c;" horiz-adv-x="1124" arabic-form="isolated" 
d="M980 27l-228 -228l-227 228l227 225zM1074 518q-37 -94 -186 -94q-70 0 -189 20q-55 -32 -125 -96q-57 -53 -114 -129q-45 -61 -84 -149q-33 -74 -33 -154q0 -63 29 -115q30 -49 71 -77q49 -33 103 -48q51 -14 112 -14q58 0 121 14q86 21 127 33q62 21 111 43
q51 25 65 43l-137 -440q-178 -64 -324 -68q-170 -4 -284 43q-113 45 -187 125q-71 82 -102 180q-29 99 -33 207q0 72 19 154q18 84 63 172t117 176q65 84 176 174q-10 2 -53 7t-54 10h-10h-4q-205 0 -282 -80l-66 65l109 182q16 29 57 78q29 31 59 51q35 21 70 29q33 8 86 8
q10 0 68 -4q77 -12 96 -14q78 -14 106 -21q97 -22 101 -22q28 -8 98 -21q45 -12 96 -18q45 -8 88 -12q41 -6 68 -6q112 0 153 32z" />
    <glyph glyph-name="u062D" unicode="&#x62d;" horiz-adv-x="1122" arabic-form="isolated" 
d="M1074 518q-37 -94 -186 -94q-70 0 -189 20q-55 -32 -125 -96q-57 -53 -114 -129q-45 -61 -84 -149q-33 -74 -33 -154q0 -63 29 -115q30 -49 71 -77q49 -33 103 -48q51 -14 112 -14q58 0 121 14q86 21 127 33q62 21 111 43q51 25 65 43l-137 -440q-178 -64 -324 -68
q-170 -4 -284 43q-113 45 -187 125q-71 82 -102 180q-29 99 -33 207q0 72 19 154q18 84 63 172t117 176q65 84 176 174q-10 2 -53 7t-54 10h-10h-4q-205 0 -282 -80l-66 65l109 182q16 29 57 78q29 31 59 51q35 21 70 29q33 8 86 8q10 0 68 -4q77 -12 96 -14q78 -14 106 -21
q97 -22 101 -22q28 -8 98 -21q45 -12 96 -18q45 -8 88 -12q41 -6 68 -6q112 0 153 32z" />
    <glyph glyph-name="u062E" unicode="&#x62e;" horiz-adv-x="1122" arabic-form="isolated" 
d="M1074 518q-37 -94 -186 -94q-70 0 -189 20q-55 -32 -125 -96q-57 -53 -114 -129q-45 -61 -84 -149q-33 -74 -33 -154q0 -63 29 -115q30 -49 71 -77q49 -33 103 -48q51 -14 112 -14q58 0 121 14q86 21 127 33q62 21 111 43q51 25 65 43l-137 -440q-178 -64 -324 -68
q-170 -4 -284 43q-113 45 -187 125q-71 82 -102 180q-29 99 -33 207q0 72 19 154q18 84 63 172t117 176q65 84 176 174q-10 2 -53 7t-54 10h-10h-4q-205 0 -282 -80l-66 65l109 182q16 29 57 78q29 31 59 51q35 21 70 29q33 8 86 8q10 0 68 -4q77 -12 96 -14q78 -14 106 -21
q97 -22 101 -22q28 -8 98 -21q45 -12 96 -18q45 -8 88 -12q41 -6 68 -6q112 0 153 32zM624 1370l227 -227l-227 -228l-226 228z" />
    <glyph glyph-name="u062F" unicode="&#x62f;" horiz-adv-x="1036" arabic-form="isolated" 
d="M645 1018q18 -23 108 -141q60 -82 103 -172q43 -89 76 -211q30 -113 30 -254q0 -103 -22 -240h-660q-116 0 -170.5 55.5t-54.5 147.5q0 100 94 262v-4q-2 -6 2 -33q2 -18 19 -41q14 -18 39 -35q22 -16 55 -16h414q-15 59 -39 108q-31 58 -64 105q-41 53 -84 102
q-30 33 -96 94l190 338z" />
    <glyph glyph-name="u0630" unicode="&#x630;" horiz-adv-x="1040" arabic-form="isolated" 
d="M657 1018q18 -23 108 -141q60 -82 103 -172q43 -89 76 -211q30 -113 30 -254q0 -103 -22 -240h-660q-116 0 -170.5 55.5t-54.5 147.5q0 100 94 262v-4q-2 -6 2 -33q2 -18 19 -41q14 -18 39 -35q22 -16 55 -16h414q-15 59 -39 108q-31 58 -64 105q-41 53 -84 102
q-30 33 -96 94l190 338zM587 1296l-227 -227l-225 227l225 228z" />
    <glyph glyph-name="u0631" unicode="&#x631;" horiz-adv-x="753" arabic-form="isolated" 
d="M664 203q0 -92 -15 -180q-16 -103 -53 -199q-39 -105 -111 -221q-75 -125 -182 -246l-301 254q100 70 172 147q64 72 113 158q43 76 69 160q21 78 37 157q-22 105 -67 196t-131 224l243 324q223 -445 226 -774z" />
    <glyph glyph-name="u0632" unicode="&#x632;" horiz-adv-x="753" arabic-form="isolated" 
d="M664 203q0 -92 -14 -180q-16 -103 -53 -199q-39 -105 -111 -221q-76 -125 -182 -246l-301 254q100 70 172 147q63 72 113 158q43 76 69 160q21 78 37 157q-22 105 -67.5 196t-131.5 224l244 324q223 -445 225 -774zM417 1235l-228 -227l-225 227l225 227z" />
    <glyph glyph-name="u0633" unicode="&#x633;" horiz-adv-x="2529" arabic-form="isolated" 
d="M1308 336h307q-41 102 -115 229l-8 17q-6 6 -14 22q0 4 -13 21q-8 12 -8 14l252 295l39 -78q129 -254 156 -520h262q-41 102 -115 229l-8 17q-6 6 -14 22q0 4 -13 21q-8 12 -8 14l252 295l39 -78q158 -317 158 -586q0 -127 -25 -270h-1084q-2 -14 -5 -29
q-19 -84 -48 -151q-32 -74 -86 -150q-49 -65 -124 -129q-72 -57 -164 -90q-99 -35 -209 -35q-174 0 -289 52q-117 53 -188 133q-72 80 -105 172q-35 96 -43 176q-6 82 2 157q8 64 33 154q16 62 57 146q33 65 80 124l168 -116q-86 -127 -86 -316q0 -67 29 -131
q26 -57 78 -106q47 -41 112 -70q66 -24 133.5 -24t130.5 24q66 25 119 64q47 36 92 88q39 49 56 96q-43 154 -219 432l221 317q151 -243 215 -452z" />
    <glyph glyph-name="u0634" unicode="&#x634;" horiz-adv-x="2529" arabic-form="isolated" 
d="M1439 1427l227 -227l-227 -227l-228 227zM1699 1753l225 -225l-225 -228l-227 228zM2182 1200l-227 -227l-227 227l227 227zM1308 336h307q-41 102 -115 229l-8 17q-6 6 -14 22q0 4 -13 21q-8 12 -8 14l252 295l39 -78q129 -254 156 -520h262q-41 102 -115 229l-8 17
q-6 6 -14 22q0 4 -13 21q-8 12 -8 14l252 295l39 -78q158 -317 158 -586q0 -127 -25 -270h-1084q-2 -14 -5 -29q-19 -84 -48 -151q-32 -74 -86 -150q-49 -65 -124 -129q-72 -57 -164 -90q-99 -35 -209 -35q-174 0 -289 52q-117 53 -188 133q-72 80 -105 172q-35 96 -43 176
q-6 82 2 157q8 64 33 154q16 62 57 146q33 65 80 124l168 -116q-86 -127 -86 -316q0 -67 29 -131q26 -57 78 -106q47 -41 112 -70q66 -24 133.5 -24t130.5 24q66 25 119 64q47 36 92 88q39 49 56 96q-43 154 -219 432l221 317q151 -243 215 -452z" />
    <glyph glyph-name="u0635" unicode="&#x635;" horiz-adv-x="2754" arabic-form="isolated" 
d="M2414 340q0 80 -27 131q-29 53 -65 82q-41 31 -84 43q-47 12 -84 12q-43 0 -90 -10q-39 -10 -101 -41q-61 -35 -129 -82q-65 -45 -186 -135h766zM1298 356q115 113 295 256q270 224 479 324q86 41 176 41q94 0 176 -45q37 -21 86 -66q47 -47 78 -106q37 -70 57 -150
q23 -90 23 -192q0 -19 -4 -80q-11 -74 -15 -105q-14 -83 -20 -116q-15 -74 -27 -117h-1258q-2 -14 -5 -29q-19 -84 -48 -151q-32 -74 -86 -150q-49 -65 -124 -129q-72 -57 -164 -90q-99 -35 -209 -35q-174 0 -289 52q-117 53 -188 133q-72 80 -105 172q-35 96 -43 176
q-6 82 2 157q8 64 33 154q16 62 57 146q33 65 80 124l168 -116q-86 -127 -86 -316q0 -67 29 -131q26 -57 78 -106q47 -41 112 -70q66 -24 133.5 -24t130.5 24q66 25 119 64q47 36 92 88q39 49 56 96q-43 154 -219 432l221 317q144 -231 209 -432z" />
    <glyph glyph-name="u0636" unicode="&#x636;" horiz-adv-x="2754" arabic-form="isolated" 
d="M2414 340q0 80 -27 131q-29 53 -65 82q-41 31 -84 43q-47 12 -84 12q-43 0 -90 -10q-39 -10 -101 -41q-61 -35 -129 -82q-65 -45 -186 -135h766zM1877 1493l228 -227l-228 -228l-227 228zM1298 356q115 113 295 256q270 224 479 324q86 41 176 41q94 0 176 -45
q37 -21 86 -66q47 -47 78 -106q37 -70 57 -150q23 -90 23 -192q0 -19 -4 -80q-11 -74 -15 -105q-14 -83 -20 -116q-15 -74 -27 -117h-1258q-2 -14 -5 -29q-19 -84 -48 -151q-32 -74 -86 -150q-49 -65 -124 -129q-72 -57 -164 -90q-99 -35 -209 -35q-174 0 -289 52
q-117 53 -188 133q-72 80 -105 172q-35 96 -43 176q-6 82 2 157q8 64 33 154q16 62 57 146q33 65 80 124l168 -116q-86 -127 -86 -316q0 -67 29 -131q26 -57 78 -106q47 -41 112 -70q66 -24 133.5 -24t130.5 24q66 25 119 64q47 36 92 88q39 49 56 96q-43 154 -219 432
l221 317q144 -231 209 -432z" />
    <glyph glyph-name="u0637" unicode="&#x637;" horiz-adv-x="1833" arabic-form="isolated" 
d="M1700 0h-1441l-186 338h342q16 18 61.5 54t61.5 57q-4 135 -4 210q0 72 -4 224q-6 110 -6 223q0 78 -5 209l320 194v-800q35 32 82 63l88 57l82 45q24 15 61 33q86 41 172 41q97 0 172 -45q35 -18 90 -63q50 -47 89 -109q38 -67 67 -164q25 -98 17 -227zM1527 340
q0 80 -27 131q-28 53 -65 82q-41 31 -84 43q-45 12 -84 12q-41 0 -96 -10q-45 -10 -110.5 -41t-143.5 -82q-76 -49 -193 -135h803z" />
    <glyph glyph-name="u0638" unicode="&#x638;" horiz-adv-x="1833" arabic-form="isolated" 
d="M1700 0h-1441l-186 338h342q16 18 61.5 54t61.5 57q-4 135 -4 210q0 72 -4 224q-6 110 -6 223q0 78 -5 209l320 194v-800q35 32 82 63l88 57l82 45q24 15 61 33q86 41 172 41q97 0 172 -45q35 -18 90 -63q50 -47 89 -109q38 -67 67 -164q25 -98 17 -227zM1527 340
q0 80 -27 131q-28 53 -65 82q-41 31 -84 43q-45 12 -84 12q-41 0 -96 -10q-45 -10 -110.5 -41t-143.5 -82q-76 -49 -193 -135h803zM1191 1518l227 -228l-227 -227l-228 227z" />
    <glyph glyph-name="u0639" unicode="&#x639;" horiz-adv-x="970" arabic-form="isolated" 
d="M877 328q-137 -17 -235 -64q-101 -49 -170 -114q-68 -66 -103 -140q-35 -80 -35 -143q0 -47 19 -90q14 -39 51 -76q33 -29 88 -49q55 -17 125 -17q33 0 88 7q90 14 123 22q43 10 137 39q74 23 139 55l-122 -405q-31 -15 -101 -35q-53 -14 -108 -25q-21 -4 -103 -14
q-65 -4 -82 -4q-153 -4 -264 39q-114 43 -192 117q-78 73 -117 172q-41 96 -41 209q0 274 225 499q-51 51 -86 126t-39 147q-8 127 54 229q59 98 165 158q97 55 232 65q127 8 254 -47l74 -252q-68 31 -138 39q-82 10 -143 -2q-70 -16 -111 -53q-45 -39 -43 -107
q5 -82 72 -114q176 73 440 108z" />
    <glyph glyph-name="u063A" unicode="&#x63a;" horiz-adv-x="970" arabic-form="isolated" 
d="M877 328q-137 -17 -235 -64q-101 -49 -170 -114q-68 -66 -103 -140q-35 -80 -35 -143q0 -47 19 -90q14 -39 51 -76q33 -29 88 -49q55 -17 125 -17q33 0 88 7q90 14 123 22q43 10 137 39q74 23 139 55l-122 -405q-31 -15 -101 -35q-53 -14 -108 -25q-21 -4 -103 -14
q-65 -4 -82 -4q-153 -4 -264 39q-114 43 -192 117q-78 73 -117 172q-41 96 -41 209q0 274 225 499q-51 51 -86 126t-39 147q-8 127 54 229q59 98 165 158q97 55 232 65q127 8 254 -47l74 -252q-68 31 -138 39q-82 10 -143 -2q-70 -16 -111 -53q-45 -39 -43 -107
q5 -82 72 -114q176 73 440 108zM466 1600l228 -228l-228 -227l-225 227z" />
    <glyph glyph-name="u0641" unicode="&#x641;" horiz-adv-x="1945" arabic-form="isolated" 
d="M355 0q-64 0 -125 20q-68 19 -123 62t-90 115q-37 69 -37 176q0 102 33 188q33 92 82 166q51 80 114 143q66 66 133 115l50 -184q-60 -62 -98 -146t-38 -157q0 -72 39 -117t121 -45h1202q0 10 -4 47q-8 33 -14 49q-2 6 -14 41q-4 14 -11 21q-153 -31 -262 -31
q-209 0 -311 43t-94 139q14 137 67.5 252t122.5 197q72 84 146 131q75 47 135 53q76 10 139.5 -27t118.5 -106q53 -72 96 -168q43 -109 72 -211q30 -125 47 -234q20 -126 22 -235v-61q0 -25 -4 -78q-4 -62 -8 -82q-4 -58 -8 -76h-1499zM1579 1610l-227 -228l-225 228
l225 227zM1133 764q109 -47 377 -12q-45 100 -85 147t-91 47q-45 0 -84 -26q-35 -25 -66 -62q-24 -29 -43 -63q-14 -27 -8 -31z" />
    <glyph glyph-name="u0642" unicode="&#x642;" horiz-adv-x="1632" arabic-form="isolated" 
d="M1304 139q-153 -30 -262 -30q-92 0 -178 10q-82 10 -131 33q-53 22 -76 63q-22 43 -14 104q22 140 73.5 252.5t122.5 196.5q66 80 142 131q75 47 133 53q102 4 186 -67q82 -70 141 -185q58 -112 86.5 -259.5t18.5 -299.5q-8 -153 -55 -301q-47 -147 -142 -260
q-100 -119 -237 -186q-142 -70 -342 -70q-183 0 -324 60q-131 55 -225 155q-86 94 -127 221q-39 121 -29 256q8 127 72 256q55 119 168 226l108 -133q-86 -152 -86 -281q-2 -129 60 -219q63 -92 173.5 -137t254.5 -33q69 6 155 35q84 30 158 86q72 53 125 135q49 82 51 188z
M1546 1253l-227 -227l-226 227l226 228zM843 1481l228 -228l-228 -227l-225 227zM868 438q109 -47 377 -12q-45 100 -85 147.5t-91 47.5q-45 0 -84 -27q-35 -25 -66 -62q-24 -28 -43 -63q-14 -27 -8 -31z" />
    <glyph glyph-name="u0643" unicode="&#x643;" horiz-adv-x="1855" arabic-form="isolated" 
d="M1747 1473v-1473h-1380q-64 0 -125 20q-68 19 -121 64q-55 43 -90 115q-37 71 -37 176q0 96 31 186q32 92 82 166q57 84 116 143q64 64 131 113l50 -182q-60 -62 -98 -145t-38 -156q0 -72 40 -118t122 -46h989v936zM742 866q-41 15 -62 37q-22 19 -34.5 41.5t-16.5 44.5
q-4 29 -4 43q0 49 28 111q27 55 74 106q47 49 105 80q57 31 123 27q77 0 135 -27l-23 -233q-53 24 -119 24q-84 0 -137 -104q12 -12 23 -17q28 -16 65 -16q82 0 344 121l-102 -297q-193 -51 -348 -160q-80 -59 -125 -106l-2 139q4 111 76 186z" />
    <glyph glyph-name="u0644" unicode="&#x644;" horiz-adv-x="1339" arabic-form="isolated" 
d="M334 434q-22 -28 -39 -67q-22 -56 -26 -78q-13 -53 -15 -80q-4 -53 -4 -72q0 -78 27 -143q26 -64 74 -117q49 -51 106 -78q62 -28 125 -28q152 0 237 97t85 269v1133l327 203v-1418q0 -133 -47 -252q-47 -116 -129 -198q-84 -84 -199 -133q-116 -47 -249 -47
q-131 0 -248 47q-113 49 -197 133t-131 198q-47 119 -47 252q0 307 219 518z" />
    <glyph glyph-name="u0645" unicode="&#x645;" horiz-adv-x="1355" arabic-form="isolated" 
d="M324 0q2 0 2 -2v-651l-326 -203v854q0 92 29 160q26 63 71 104q41 39 93 57q53 17 90 17h71q17 92 58 190q45 105 106 183q66 86 146 135q81 53 170 53q92 0 165 -35q66 -35 121 -96q45 -55 82 -133q31 -68 53 -152q17 -69 27 -145q6 -70 6 -125q0 -152 -39 -264
q-14 -47 -41 -107q-61 62 -131 97q-73 34 -137 47q-63 14 -131 14q-43 2 -125 2h-360zM621 340q63 0 120 -6q54 -2 115 -17q47 -10 98 -34q45 -25 74 -66q2 94 -18 158q-23 57 -60 100q-37 37 -78 53q-36 15 -75 11q-54 -7 -93.5 -51t-82.5 -148z" />
    <glyph glyph-name="u0646" unicode="&#x646;" horiz-adv-x="1333" arabic-form="isolated" 
d="M555 809l-227 225l227 228l228 -228zM1262 233q4 -67 -10 -133q-17 -80 -48 -151q-32 -74 -86 -150q-49 -65 -124 -129q-72 -57 -164 -90q-99 -35 -209 -35q-174 0 -289 52q-117 53 -188 133q-72 80 -105 172q-35 96 -43 176q-6 82 2 158q8 63 33 153q16 62 57 146
q33 65 80 124l168 -116q-86 -127 -86 -316q0 -67 29 -131q26 -57 78 -106q47 -41 112 -70q66 -24 133.5 -24t130.5 24q66 25 119 64q58 47 92 90q39 45 56 94q-43 154 -219 432l221 318q239 -386 260 -685z" />
    <glyph glyph-name="u0647" unicode="&#x647;" horiz-adv-x="940" arabic-form="isolated" 
d="M430 1120q94 -71 125 -96q74 -61 143 -137q64 -70 121 -170q49 -92 49 -193q0 -88 -37 -186q-34 -94 -102 -180q-68 -84 -160 -135q-96 -54 -205 -54q-65 0 -96 2q-45 2 -88 17q-45 16 -76 41q-37 26 -59 69q-39 82 -39 164q0 21 4 82q4 53 16 96q11 47 41 117
q31 66 76 135zM270 397q21 -37 64 -51q47 -16 98 -10q53 4 106 35q50 26 82 88q-8 26 -23.5 55t-28.5 47.5t-39.5 47t-37 39.5t-44 42t-38.5 35q-16 -20 -59 -84q-37 -55 -53 -90q-23 -47 -31 -84q-10 -43 4 -70z" />
    <glyph glyph-name="u0648" unicode="&#x648;" horiz-adv-x="1028" arabic-form="isolated" 
d="M554 948q78 0 143 -37q64 -39 109 -98q43 -55 78 -137q26 -68 51 -158q16 -72 27 -156q8 -67 8 -133q0 -94 -17 -213q-16 -106 -59 -229q-41 -117 -110.5 -231.5t-176.5 -227.5l-284 258q84 66 141 123q43 47 94 115q33 45 62 100l41 88q-68 -8 -168 -8q-84 0 -172 16
q-84 17 -144 46q-63 30 -82 84q-14 34 -8 116q2 70 29 164q18 76 63 180q41 97 97 168q53 72 127 123q71 47 151 47zM364 356q8 -14 28 -28q27 -19 60 -27q41 -10 100 -12q61 -2 150 6q-5 45 -13 104q-8 58 -30 107q-21 45 -54 82q-32 33 -78 33q-28 0 -61 -33
q-37 -37 -61 -78q-27 -43 -39 -88q-15 -43 -2 -66z" />
    <glyph glyph-name="u0649" unicode="&#x649;" horiz-adv-x="1456" arabic-form="isolated" 
d="M596 362q4 109 45 213q43 107 113 195q67 86 153 141q88 54 174 54q25 0 68 -7q45 -6 86 -32q41 -29 72 -80q30 -55 30 -154v-26q-2 -15 -2 -45q0 -19 -4 -48q-2 -14 -2 -32q-51 73 -113 94q-63 20 -127 12q-63 -8 -122 -43q-60 -35 -101 -76q84 -20 166 -51
q88 -35 166 -80q78 -49 129 -110q51 -60 51 -137q0 -109 -49 -220q-53 -114 -143 -200q-97 -90 -223 -148q-130 -57 -291 -57q-172 0 -295 57q-125 58 -207 144t-123 188q-39 100 -43 192q-2 84 23 181q24 94 67 176q41 84 96 155q50 66 111 115l119 -115l-64 -94
q-28 -47 -43 -88q-16 -47 -24 -92q-8 -41 -8 -104q0 -90 38 -154q41 -68 101 -109q57 -38 133 -61q70 -20 145 -20q54 0 109 12q57 16 104 39q56 28 90 59q41 35 62 76q-29 20 -57.5 35.5t-69.5 32t-62.5 24.5t-80 27.5t-78.5 27.5q-64 25 -89.5 50.5t-29.5 82.5z" />
    <glyph glyph-name="u064A" unicode="&#x64a;" horiz-adv-x="1468" arabic-form="isolated" 
d="M596 465q4 108 45 213q43 106 113 194q67 86 153 142q88 53 174 53q25 0 68 -6q45 -6 86 -33q41 -29 72 -80q30 -55 30 -153v-27q-2 -14 -2 -45q0 -18 -4 -47q-2 -14 -2 -33q-51 74 -113 94q-63 21 -127 13q-63 -9 -122 -43q-60 -35 -101 -76q84 -21 166 -51
q88 -35 166 -80q78 -49 129 -111q51 -59 51 -137q0 -109 -49 -219q-53 -115 -143 -201q-97 -90 -223 -147q-130 -58 -291 -58q-172 0 -295 58q-125 57 -207 143t-123 188q-39 101 -43 193q-2 84 23 180q24 94 67 176q41 84 96 156q50 65 111 115l119 -115l-64 -94
q-28 -47 -43 -88q-16 -47 -24 -93q-8 -40 -8 -104q0 -90 38 -154q43 -69 101 -106q55 -41 133 -64q70 -20 145 -20q58 0 109 14q51 13 104 37q49 25 90 59.5t62 75.5q-29 21 -57.5 36.5t-69.5 31.5t-62.5 24.5t-80 28t-78.5 27.5q-64 24 -89.5 50t-29.5 83zM616 -444
l228 -228l-228 -227l-225 227zM1319 -672l-227 -227l-226 227l226 228z" />
    <glyph glyph-name="u067E" unicode="&#x67e;" horiz-adv-x="1317" arabic-form="isolated" 
 />
    <glyph glyph-name="u0686" unicode="&#x686;" horiz-adv-x="931" arabic-form="isolated" 
 />
    <glyph glyph-name="u0698" unicode="&#x698;" horiz-adv-x="972" arabic-form="isolated" 
 />
    <glyph glyph-name="u06AF" unicode="&#x6af;" horiz-adv-x="1675" arabic-form="isolated" 
 />
    <glyph glyph-name="uFB57" unicode="&#x67e;" horiz-adv-x="1128" arabic-form="final" 
 />
    <glyph glyph-name="uFB58" unicode="&#x67e;" horiz-adv-x="555" arabic-form="initial" 
 />
    <glyph glyph-name="uFB59" unicode="&#x67e;" horiz-adv-x="576" arabic-form="medial" 
 />
    <glyph glyph-name="uFB7B" unicode="&#x686;" horiz-adv-x="941" arabic-form="final" 
 />
    <glyph glyph-name="uFB7C" unicode="&#x686;" horiz-adv-x="866" arabic-form="initial" 
 />
    <glyph glyph-name="uFB7D" unicode="&#x686;" horiz-adv-x="879" arabic-form="medial" 
 />
    <glyph glyph-name="uFB8B" unicode="&#x698;" horiz-adv-x="791" arabic-form="final" 
 />
    <glyph glyph-name="uFEDA" unicode="&#x6a9;" horiz-adv-x="1900" arabic-form="final" 
d="M741 866q-41 15 -61 37q-23 19 -35 41.5t-16 44.5q-4 29 -4 43q0 49 28 111q27 55 74 106q47 49 104 80q58 31 123 27q78 0 136 -27l-23 -233q-53 24 -119 24q-84 0 -137 -104q12 -12 23 -17q28 -16 65 -16q82 0 344 121l-102 -297q-193 -51 -348 -160q-80 -59 -125 -106
l-2 139q4 111 75 186zM1419 336v936l328 201v-1137h264v-336h-1644q-64 0 -125 20q-68 19 -121 64q-55 43 -90 115q-37 71 -37 176q0 96 31 186q32 92 81 166q58 84 117 143q64 64 131 113l49 -182q-59 -62 -97 -145t-38 -156q0 -72 40 -118t122 -46h989z" />
    <glyph glyph-name="uFEDB" unicode="&#x6a9;" horiz-adv-x="1153" arabic-form="initial" 
d="M-98 0v336h860q-10 47 -55 90q-51 45 -117 78q-76 37 -151 61q-78 23 -160 33q-148 14 -207 14v262q0 58 16 107q15 47 43 80q19 26 60 59q59 43 65 47l484 306q73 47 137 47q65 0 102 -40t37 -108v-207q-29 17 -51 19q-27 2 -49 -4q-15 -4 -43 -17q-29 -16 -41 -24
l-408 -217q164 -29 285 -103q127 -78 209 -196q84 -123 121 -277q37 -158 18 -346h-1155z" />
    <glyph glyph-name="uFEDC" unicode="&#x6a9;" horiz-adv-x="1167" arabic-form="medial" 
d="M-98 0v336h860q-10 47 -55 90q-51 45 -117 78q-76 37 -151 61q-78 23 -160 33q-148 14 -207 14v262q0 58 16 107q15 47 43 80q19 26 60 59q59 43 65 47l484 306q73 47 137 47q65 0 102 -40t37 -108v-207q-29 17 -51 19q-27 2 -49 -4q-15 -4 -43 -17q-29 -16 -41 -24
l-408 -217q121 -23 219 -70q105 -53 181 -127q82 -78 135 -174q53 -94 82 -215h250v-336h-1389z" />
    <glyph glyph-name="uFB93" unicode="&#x6af;" horiz-adv-x="1234" arabic-form="final" 
 />
    <glyph glyph-name="uFB94" unicode="&#x6af;" horiz-adv-x="871" arabic-form="initial" 
 />
    <glyph glyph-name="uFB95" unicode="&#x6af;" horiz-adv-x="465" arabic-form="medial" 
 />
    <glyph glyph-name="uFE94" unicode="&#x6c0;" horiz-adv-x="1153" arabic-form="final" 
d="M1063 1231l-228 -227l-225 227l225 227zM360 1458l228 -227l-228 -227l-225 227zM641 0h-590q-16 -2 -27 14q-12 19 -14 39q-4 29 -4 45v39q6 90 33 182q24 93 67 187q37 82 101 172q57 80 131 143q69 62 157 99q86 34 179 34q69 0 123 -59q55 -66 94 -152
q37 -86 63 -200q25 -107 37 -207h264v-336h-506q-14 74 -47 217zM530 612q-63 0 -136 -73.5t-120 -206.5h402q-25 92 -37 133q-15 43 -35 86q-14 27 -35 47q-16 14 -39 14z" />
    <glyph glyph-name="uFEF2" unicode="&#x6cc;" horiz-adv-x="1458" arabic-form="final" 
d="M1612 336v-336h-145q-103 0 -119 2q-29 -74 -90 -160q-60 -86 -152 -155q-92 -72 -217 -117q-123 -45 -283 -45q-172 0 -284 57q-121 60 -189 144q-71 88 -102 188q-31 94 -35 192q-2 80 21 177q22 94 61 174q39 90 86 161q43 68 102 138l134 -131q-142 -197 -142 -410
q0 -70 29 -133q26 -59 74 -107q45 -41 106 -69q62 -25 129 -25q74 0 133 15q70 16 125 43q70 32 111 59q53 37 86 70q-101 36 -180 100q-17 12 -29 25q-10 10 -31 38q-18 25 -26 52q-11 30 -11 63v299q74 -78 140 -131q65 -55 149 -96q76 -39 168 -62q84 -20 199 -20h182z
M641 -549l227 -227l-227 -228l-225 228zM1344 -776l-228 -228l-225 228l225 227z" />
    <glyph glyph-name="uFEF3" unicode="&#x6cc;" horiz-adv-x="1110" arabic-form="initial" 
d="M203 -131l227 -227l-227 -228l-225 228zM905 -358l-227 -228l-225 228l225 227zM887 856q158 -317 158 -586q0 -127 -25 -270h-1110v336h844q-41 102 -115 229l-8 17q-6 6 -14 22q0 4 -13 21q-8 12 -8 14l252 295z" />
    <glyph glyph-name="uFEF4" unicode="&#x6cc;" horiz-adv-x="948" arabic-form="medial" 
d="M1070 336v-336h-1192v336h561q-35 84 -162 303l256 293q166 -326 193 -596h344zM265 -131l227 -227l-227 -228l-225 228zM968 -358l-228 -228l-225 228l225 227z" />
    <glyph glyph-name="Hcircumflex" unicode="&#x622;" horiz-adv-x="616" arabic-form="final" 
d="M720 336v-336h-607v1270l326 203v-1137h281zM731 1924q0 -11 -2 -24.5t-6 -43.5q0 -15 -3 -41q-4 -11 -4 -25q-8 -37 -17 -75q-11 -36 -34 -60q-28 -29 -66 -44q-40 -19 -117 -30l-452 -60q-77 -8 -113 -28q-34 -19 -51 -42q-17 -26 -19 -38q-2 -7 -4.5 -11t-8.5 -2
q-11 2 -14 55t1 81q2 40 15 77q15 36 39.5 60.5t69.5 45.5q45 19 111 26q155 19 279 38q104 13 179 32q64 17 98 43q28 27 34 66h85z" />
    <glyph glyph-name="uFE84" unicode="&#x623;" horiz-adv-x="616" arabic-form="final" 
d="M720 336v-336h-607v1270l326 203v-1137h281zM107 1740q-32 16 -56 40q-22 24 -32 44q-10 24 -10 46q-4 22 0 42q2 51 36 105q34 56 82 98q50 44 110 68q59 24 123 14q88 -14 130 -40l-44 -225q-58 35 -114 35q-77 8 -145 -89q6 -6 22 -18q26 -16 63 -22q72 -10 346 84
l-128 -278q-182 -26 -357 -152q-78 -56 -134 -119l16 193q14 102 92 174z" />
    <glyph glyph-name="uFE86" unicode="&#x624;" horiz-adv-x="1038" arabic-form="final" 
d="M1154 0h-207q-65 -375 -344 -672l-284 258q84 66 141 123q43 47 94 115q33 45 62 100l41 88q-68 -8 -168 -8q-84 0 -172 16q-84 17 -144 46q-63 30 -82 84q-14 34 -8 116q2 70 29 164q18 76 63 180q41 97 97 168q53 72 127 123q71 47 151 47q100 0 176 -59
q72 -62 123 -152q47 -86 76 -196q26 -107 37 -201h190zM360 356q10 -16 28 -26q21 -13 60 -21q35 -8 100 -8q66 -2 150 4q-5 47 -13 103q-10 57 -30 102q-21 43 -54 80q-35 31 -78 31q-28 0 -61 -33q-37 -37 -61 -78q-27 -43 -39 -88q-15 -43 -2 -66zM283 1280
q-37 19 -60 41q-20 21 -31 45q-8 21 -12 47q0 29 2 43q2 52 37 107q35 57 84 100q51 45 113 70q59 24 125 14q90 -14 133 -41l-45 -229q-60 35 -117 35q-78 8 -147 -90q6 -7 22 -19q27 -16 64 -22q73 -11 354 86l-131 -285q-187 -27 -365 -156q-80 -57 -137 -121l16 197
q15 104 95 178z" />
    <glyph glyph-name="uFE88" unicode="&#x625;" horiz-adv-x="616" arabic-form="final" 
d="M720 336v-336h-607v1270l326 203v-1137h281zM127 -623q-32 16 -56 40q-22 24 -32 44q-10 24 -10 46q-4 22 0 42q2 51 36 105q34 56 82 98q50 44 110 68q59 24 123 14q88 -14 130 -40l-44 -225q-58 35 -114 35q-77 8 -145 -89q6 -6 22 -18q26 -16 63 -22q72 -10 346 84
l-128 -278q-182 -26 -357 -152q-78 -56 -134 -119l16 193q14 102 92 174z" />
    <glyph glyph-name="uFE8A" unicode="&#x626;" horiz-adv-x="1458" arabic-form="final" 
d="M1612 336v-336h-145q-103 0 -119 2q-29 -74 -90 -160q-60 -86 -152 -155q-92 -72 -217 -117q-123 -45 -283 -45q-172 0 -284 57q-121 60 -189 144q-71 88 -102 188q-31 94 -35 192q-2 80 21 177q22 94 61 174q39 90 86 161q43 68 102 138l134 -131q-142 -197 -142 -410
q0 -70 29 -133q27 -59 74 -107q45 -41 106 -69q62 -25 129 -25q74 0 133 15q70 16 125 43q70 32 111 59q53 37 86 70q-100 36 -180 100q-17 12 -29 25q-10 10 -31 38q-18 25 -26 52q-11 30 -11 63v299q74 -78 140 -131q65 -55 149 -96q76 -39 168 -62q84 -20 199 -20h182z
M15 1032q-37 19 -60 41q-20 21 -31 45q-8 21 -12 47q0 29 2 43q2 52 37 107q35 57 84 100q51 45 113 70q59 24 125 14q90 -14 133 -41l-45 -229q-60 35 -117 35q-78 8 -147 -90q6 -7 22 -19q27 -16 64 -22q73 -11 354 86l-131 -285q-187 -27 -365 -156q-80 -57 -137 -121
l16 197q15 104 95 178z" />
    <glyph glyph-name="uFE8B" unicode="&#x626;" horiz-adv-x="987" arabic-form="initial" 
d="M727 856q158 -317 158 -586q0 -127 -25 -270h-950v336h684q-41 102 -115 229l-8 17q-6 6 -14 22q0 4 -12 21q-9 12 -9 14l252 295zM268 1130q-39 17 -61 37q-23 19 -35 41.5t-16 44.5q-4 29 -4 43q0 50 28 111q27 55 74 106q45 50 105 80q57 31 122 27q78 0 136 -27
l-23 -233q-53 24 -119 24q-84 0 -137 -104q12 -12 23 -16q28 -17 65 -17q82 0 344 121l-102 -297q-191 -51 -348 -188q-78 -70 -125 -135l-2 196q4 111 75 186z" />
    <glyph glyph-name="uFE8C" unicode="&#x626;" horiz-adv-x="899" arabic-form="medial" 
d="M1057 336v-336h-1155v336h649q-35 84 -162 303l256 293q166 -326 193 -596h219zM219 1163q-32 17 -57 41q-22 25 -33 45q-10 25 -10 47q-4 23 0 43q2 52 37 107q35 57 84 100q51 45 113 70q59 24 124 14q91 -14 134 -41l-45 -229q-60 35 -117 35q-78 8 -148 -90
q7 -7 23 -19q27 -16 63 -22q74 -11 355 86l-131 -285q-187 -27 -365 -156q-80 -57 -137 -121l16 197q15 105 94 178z" />
    <glyph glyph-name="uFE8E" unicode="&#x627;" horiz-adv-x="616" arabic-form="final" 
d="M720 336v-336h-606v1270l326 203v-1137h280z" />
    <glyph glyph-name="uFE90" unicode="&#x628;" horiz-adv-x="1966" arabic-form="final" 
d="M2068 336l4 -336h-1657q-180 0 -278.5 86t-98.5 246q0 69 25 141q24 70 63 139q47 78 88 133q49 66 100 119l140 -116q-33 -35 -56 -76q-26 -45 -45 -90q-20 -52 -28 -86q-11 -47 -11 -72q0 -88 138 -88h1126q-53 131 -162 301l254 295l39 -76q131 -258 156 -520h203z
M1001 -131l-226 -227l226 -228l227 228z" />
    <glyph glyph-name="uFE91" unicode="&#x628;" horiz-adv-x="856" arabic-form="initial" 
d="M619 856q157 -317 157 -586q0 -127 -24 -270h-842v336h575q-40 102 -114 229l-8 17q-7 6 -15 22q0 4 -12 21q-8 12 -8 14l252 295zM588 -358l-227 -228l-226 228l226 227z" />
    <glyph glyph-name="uFE92" unicode="&#x628;" horiz-adv-x="735" arabic-form="medial" 
d="M848 336v-336h-946v336h475q-35 84 -162 303l256 293q166 -326 193 -596h184zM666 -358l-227 -228l-226 228l226 227z" />
    <glyph glyph-name="uFE96" unicode="&#x62a;" horiz-adv-x="1957" arabic-form="final" 
d="M2061 336l5 -336h-1651q-180 0 -278.5 86t-98.5 246q0 69 25 141q24 70 63 139q47 78 88 133q49 66 100 119l140 -116q-33 -35 -56 -76q-26 -45 -45 -90q-20 -52 -28 -86q-11 -47 -11 -72q0 -88 138 -88h1120q-53 131 -162 301l254 295l39 -76q131 -258 156 -520h202z
M757 1274l227 -227l-227 -228l-225 228zM1459 1047l-227 -228l-225 228l225 227z" />
    <glyph glyph-name="uFE97" unicode="&#x62a;" horiz-adv-x="974" arabic-form="initial" 
d="M727 856q158 -317 158 -586q0 -127 -25 -270h-950v336h684q-41 102 -115 229l-8 17q-6 6 -14 22q0 4 -12 21q-9 12 -9 14l252 295zM799 1245l-227 -227l-228 227l228 228zM94 1473l228 -228l-228 -227l-227 227z" />
    <glyph glyph-name="uFE98" unicode="&#x62a;" horiz-adv-x="917" arabic-form="medial" 
d="M1028 336v-336h-1126v336h664q-35 84 -162 303l256 293q166 -326 192 -596h176zM230 1458l227 -227l-227 -227l-226 227zM932 1231l-227 -227l-225 227l225 227z" />
    <glyph glyph-name="uFE9A" unicode="&#x62b;" horiz-adv-x="1951" arabic-form="final" 
d="M2061 336l5 -336h-1651q-180 0 -278.5 86t-98.5 246q0 69 25 141q24 70 63 139q47 78 88 133q49 66 100 119l140 -116q-33 -35 -56 -76q-26 -45 -45 -90q-20 -52 -28 -86q-11 -47 -11 -72q0 -88 138 -88h1120q-53 131 -162 301l254 295l39 -76q131 -258 156 -520h202z
M732 1262l228 -228l-228 -227l-227 227zM992 1554l209 -208l-209 -211l-211 211zM1476 1034l-228 -227l-227 227l227 228z" />
    <glyph glyph-name="uFE9B" unicode="&#x62b;" horiz-adv-x="1130" arabic-form="initial" 
d="M879 856q158 -317 158 -586q0 -127 -25 -270h-1130v336h864q-41 102 -114 229l-9 17q-6 6 -14 22q0 4 -12 21q-8 12 -8 14l251 295zM199 1438l228 -228l-228 -227l-227 227zM460 1763l225 -225l-225 -227l-228 227zM943 1210l-227 -227l-228 227l228 228z" />
    <glyph glyph-name="uFE9C" unicode="&#x62b;" horiz-adv-x="978" arabic-form="medial" 
d="M1096 336v-336h-1194v336h674q-35 84 -162 303l256 293q166 -326 193 -596h233zM185 1452l227 -227l-227 -228l-228 228zM443 1745l209 -209l-209 -211l-211 211zM928 1225l-227 -228l-228 228l228 227z" />
    <glyph glyph-name="uFE9E" unicode="&#x62c;" horiz-adv-x="1187" arabic-form="final" 
d="M735 -393q74 -4 142 10q51 10 145 39q51 16 121 45q45 18 74 35l-138 -441q-55 -16 -106 -30q-31 -6 -115 -21q-59 -10 -106 -12q-66 -4 -82 -4q-154 0 -262 55q-113 60 -181 146q-65 84 -102 198q-31 103 -35 215q0 72 19 154q18 84 63 172t117 176q65 84 176 174
q-10 2 -53 8t-54 9h-12h-4q-203 0 -280 -80l-66 65l109 182q18 29 57 78q29 31 59 51q35 21 70 29q33 8 86 8q10 0 68 -4q79 -12 96 -14q78 -14 106 -21q97 -22 101 -22q28 -8 98 -21q45 -12 96 -18q45 -8 88 -12q39 -6 68 -6q112 0 153 32l-102 -264q-37 -94 -186 -94
q-62 0 -152 14q23 -49 77 -75.5t118 -26.5h301v-336h-365q-74 0 -133 37q-61 39 -102 86q-41 43 -72 98q-33 53 -39 72q-178 -193 -178 -377q0 -63 28.5 -120.5t73.5 -96.5q51 -43 103 -66q53 -22 112 -26zM776 -29l219 -153l-219 -152l-217 152z" />
    <glyph glyph-name="uFE9F" unicode="&#x62c;" horiz-adv-x="1384" arabic-form="initial" 
d="M594 -139l228 -228l-228 -227l-225 227zM1342 336l-98 -336h-1346l-2 336h920q-11 14 -39.5 62t-56 86t-56.5 65q-82 78 -205 78q-125 0 -221 -78l-109 106l138 131q67 60 110 88q56 39 94 52q50 16 97 16q98 0 176 -41q72 -41 137 -108q57 -64 113 -148l100 -162
q88 -147 174 -147h74z" />
    <glyph glyph-name="uFEA0" unicode="&#x62c;" horiz-adv-x="1327" arabic-form="medial" 
d="M594 -139l228 -228l-228 -227l-225 227zM1448 336v-336h-1550l-2 336h920q-11 14 -39.5 62t-56 86t-56.5 65q-82 78 -205 78q-125 0 -221 -78l-109 106l138 131q67 60 110 88q56 39 94 52q50 16 97 16q98 0 176 -41q72 -41 137 -108q57 -64 113 -148l100 -162
q88 -147 174 -147h180z" />
    <glyph glyph-name="uFEA2" unicode="&#x62d;" horiz-adv-x="1187" arabic-form="final" 
d="M733 -338q74 -4 142 10q51 11 145 39q51 17 121 45q45 19 74 35l-138 -440q-55 -17 -106 -31q-31 -6 -115 -20q-59 -11 -106 -13q-66 -4 -82 -4q-152 0 -262 47q-107 49 -179 127q-67 76 -102 181q-31 94 -35 204q0 72 19 154q18 84 63 172t117 176q65 84 176 174
q-10 2 -53 8t-54 9h-12h-4q-203 0 -280 -80l-66 65l109 182q18 29 57 78q29 31 59 51q35 21 70 29q33 8 86 8q10 0 68 -4q79 -12 96 -14q78 -14 106 -21q97 -22 101 -22q28 -8 98 -21q45 -12 96 -18q45 -8 88 -12q39 -6 68 -6q112 0 153 32l-102 -264q-37 -94 -186 -94
q-62 0 -152 14q23 -49 77 -75.5t118 -26.5h301v-336h-365q-74 0 -133 37q-61 39 -102 86q-41 43 -72 98q-33 53 -39 72q-178 -193 -178 -377q0 -66 29 -113q30 -49 71 -77q49 -33 103 -48q47 -12 112 -16z" />
    <glyph glyph-name="uFEA3" unicode="&#x62d;" horiz-adv-x="1384" arabic-form="initial" 
d="M1342 336l-98 -336h-1346l-2 336h920q-11 14 -39.5 62t-56 86t-56.5 65q-82 78 -205 78q-125 0 -221 -78l-109 106l138 131q67 60 110 88q56 39 94 52q50 16 97 16q98 0 176 -41q72 -41 137 -108q57 -64 113 -148l100 -162q88 -147 174 -147h74z" />
    <glyph glyph-name="uFEA4" unicode="&#x62d;" horiz-adv-x="1341" arabic-form="medial" 
d="M1448 336v-336h-1550l-2 336h920q-11 14 -39.5 62t-56 86t-56.5 65q-82 78 -205 78q-125 0 -221 -78l-109 106l138 131q67 60 110 88q56 39 94 52q50 16 97 16q98 0 176 -41q72 -41 137 -108q57 -64 113 -148l100 -162q88 -147 174 -147h180z" />
    <glyph glyph-name="uFEA6" unicode="&#x62e;" horiz-adv-x="1187" arabic-form="final" 
d="M733 -338q74 -4 142 10q51 11 145 39q51 17 121 45q45 19 74 35l-138 -440q-55 -17 -106 -31q-31 -6 -115 -20q-59 -11 -106 -13q-66 -4 -82 -4q-152 0 -262 47q-107 49 -179 127q-67 76 -102 181q-31 94 -35 204q0 72 19 154q18 84 63 172t117 176q65 84 176 174
q-10 2 -53 8t-54 9h-12h-4q-203 0 -280 -80l-66 65l109 182q18 29 57 78q29 31 59 51q35 21 70 29q33 8 86 8q10 0 68 -4q79 -12 96 -14q78 -14 106 -21q97 -22 101 -22q28 -8 98 -21q45 -12 96 -18q45 -8 88 -12q39 -6 68 -6q112 0 153 32l-102 -264q-37 -94 -186 -94
q-62 0 -152 14q23 -49 77 -75.5t118 -26.5h301v-336h-365q-74 0 -133 37q-61 39 -102 86q-41 43 -72 98q-33 53 -39 72q-178 -193 -178 -377q0 -66 29 -113q30 -49 71 -77q49 -33 103 -48q47 -12 112 -16zM713 1370l227 -227l-227 -228l-225 228z" />
    <glyph glyph-name="uFEA7" unicode="&#x62e;" horiz-adv-x="1384" arabic-form="initial" 
d="M594 1487l228 -227l-228 -228l-225 228zM1342 336l-98 -336h-1346l-2 336h920q-11 14 -39.5 62t-56 86t-56.5 65q-82 78 -205 78q-125 0 -221 -78l-109 106l138 131q67 60 110 88q56 39 94 52q50 16 97 16q98 0 176 -41q72 -41 137 -108q57 -64 113 -148l100 -162
q88 -147 174 -147h74z" />
    <glyph glyph-name="uFEA8" unicode="&#x62e;" horiz-adv-x="1345" arabic-form="medial" 
d="M555 1499l226 -227l-226 -228l-227 228zM1448 336v-336h-1550l-2 336h920q-11 14 -39.5 62t-56 86t-56.5 65q-82 78 -205 78q-125 0 -221 -78l-109 106l138 131q67 60 110 88q56 39 94 52q50 16 97 16q98 0 176 -41q72 -41 137 -108q57 -64 113 -148l100 -162
q88 -147 174 -147h180z" />
    <glyph glyph-name="uFEAA" unicode="&#x62f;" horiz-adv-x="1036" arabic-form="final" 
d="M1134 0h-856q-116 0 -170.5 55.5t-54.5 147.5q0 100 94 262v-4q-2 -6 2 -33q2 -18 19 -41q14 -18 39 -35q22 -16 55 -16h414q-15 59 -39 108q-31 58 -64 105q-41 53 -84 102q-30 33 -96 94l190 338l60 -65q67 -84 96 -127q39 -55 94 -156q39 -76 76 -182q33 -98 45 -217
h180v-336z" />
    <glyph glyph-name="uFEAC" unicode="&#x630;" horiz-adv-x="1064" arabic-form="final" 
d="M565 1296l-227 -227l-225 227l225 228zM1182 0h-912q-116 0 -170.5 55.5t-54.5 147.5q0 100 94 262v-4q-2 -6 2 -33q2 -18 19 -41q14 -18 39 -35q22 -16 55 -16h414q-15 59 -39 108q-31 58 -64 105q-41 53 -84 102q-30 33 -96 94l190 338l60 -65q67 -84 96 -127
q39 -55 94 -156q39 -76 76 -182q33 -98 45 -217h236v-336z" />
    <glyph glyph-name="uFEAE" unicode="&#x631;" horiz-adv-x="673" arabic-form="final" 
d="M776 0h-192q-45 -322 -348 -670l-328 277q109 74 178 143q74 78 121 148q51 79 78 153q22 62 41 156q-8 37 -29 106q-16 45 -43 101q-29 55 -55 102q-70 107 -72 111l244 323q182 -354 217 -614h188v-336z" />
    <glyph glyph-name="uFEB0" unicode="&#x632;" horiz-adv-x="774" arabic-form="final" 
d="M232 995l-228 226l228 227l225 -227zM912 0h-252q-45 -322 -348 -670l-328 277q109 74 178 143q74 78 121 148q51 79 78 153q22 62 41 156q-8 37 -29 106q-16 45 -43 101q-29 55 -55 102q-70 107 -72 111l244 323q182 -354 217 -614h248v-336z" />
    <glyph glyph-name="uFEB2" unicode="&#x633;" horiz-adv-x="2547" arabic-form="final" 
d="M1348 0q-2 -14 -5 -29q-19 -84 -47 -151q-33 -74 -86 -150q-49 -65 -125 -129q-72 -57 -164 -90q-98 -35 -209 -35q-174 0 -289 52q-116 53 -188 133t-105 172q-34 96 -43 176q-6 82 3 157q8 64 32 154q17 62 58 146q32 65 80 124l167 -116q-86 -127 -86 -316
q0 -67 29 -131q27 -57 78 -106q47 -41 113 -70q65 -24 132.5 -24t131.5 24q65 25 119 64q47 36 92 88q39 49 55 96q-43 154 -219 432l221 317q152 -243 215 -452h307q-41 102 -114 229l-9 17q-6 6 -14 22q0 4 -12 21q-8 12 -8 14l251 295l39 -78q129 -254 156 -520h262
q-41 102 -114 229l-9 17q-6 6 -14 22q0 4 -12 21q-8 12 -8 14l251 295l39 -78q139 -279 156 -520h137v-336h-1244z" />
    <glyph glyph-name="uFEB3" unicode="&#x633;" horiz-adv-x="1914" arabic-form="initial" 
d="M955 336q-41 102 -114 229l-9 17q-6 6 -14 22q0 4 -12 21q-8 12 -8 14l251 295l39 -78q129 -254 156 -520h262q-41 102 -115 229l-8 17q-6 6 -14 22q0 4 -12 21q-9 12 -9 14l252 295l39 -78q158 -317 158 -586q0 -127 -25 -270h-1894v336h432q-18 53 -94 217l250 264
q53 -160 102 -336q6 -22 41 -145h346z" />
    <glyph glyph-name="uFEB4" unicode="&#x633;" horiz-adv-x="1914" arabic-form="medial" 
d="M-122 0v336h432q-18 53 -94 217l250 264q53 -160 102 -336q6 -22 41 -145h346q-41 102 -114 229l-9 17q-6 6 -14 22q0 4 -12 21q-8 12 -8 14l252 295l38 -78q130 -254 156 -520h262q-41 102 -114 229l-9 17q-6 6 -14 22q0 4 -12 21q-8 12 -8 14l251 295l39 -78
q139 -279 156 -520h175v-336h-2092z" />
    <glyph glyph-name="uFEB6" unicode="&#x634;" horiz-adv-x="2547" arabic-form="final" 
d="M1439 1427l227 -227l-227 -227l-227 227zM1699 1753l226 -225l-226 -228l-227 228zM2183 1200l-228 -227l-227 227l227 227zM1348 0q-2 -14 -5 -29q-19 -84 -47 -151q-33 -74 -86 -150q-49 -65 -125 -129q-72 -57 -164 -90q-98 -35 -209 -35q-174 0 -289 52
q-116 53 -188 133t-105 172q-34 96 -43 176q-6 82 3 157q8 64 32 154q17 62 58 146q32 65 80 124l167 -116q-86 -127 -86 -316q0 -67 29 -131q27 -57 78 -106q47 -41 113 -70q65 -24 132.5 -24t131.5 24q65 25 119 64q47 36 92 88q39 49 55 96q-43 154 -219 432l221 317
q152 -243 215 -452h307q-41 102 -114 229l-9 17q-6 6 -14 22q0 4 -12 21q-8 12 -8 14l251 295l39 -78q129 -254 156 -520h262q-41 102 -114 229l-9 17q-6 6 -14 22q0 4 -12 21q-8 12 -8 14l251 295l39 -78q139 -279 156 -520h137v-336h-1244z" />
    <glyph glyph-name="uFEB7" unicode="&#x634;" horiz-adv-x="1914" arabic-form="initial" 
d="M718 1427l227 -227l-227 -227l-228 227zM978 1753l225 -225l-225 -228l-228 228zM1461 1200l-227 -227l-228 227l228 227zM955 336q-41 102 -114 229l-9 17q-6 6 -14 22q0 4 -12 21q-8 12 -8 14l251 295l39 -78q129 -254 156 -520h262q-41 102 -115 229l-8 17
q-6 6 -14 22q0 4 -12 21q-9 12 -9 14l252 295l39 -78q158 -317 158 -586q0 -127 -25 -270h-1894v336h432q-18 53 -94 217l250 264q53 -160 102 -336q6 -22 41 -145h346z" />
    <glyph glyph-name="uFEB8" unicode="&#x634;" horiz-adv-x="1914" arabic-form="medial" 
d="M718 1427l227 -227l-227 -227l-228 227zM978 1753l225 -225l-225 -228l-227 228zM1461 1200l-227 -227l-227 227l227 227zM-122 0v336h432q-18 53 -94 217l250 264q53 -160 102 -336q6 -22 41 -145h346q-41 102 -114 229l-9 17q-6 6 -14 22q0 4 -12 21q-8 12 -8 14
l252 295l38 -78q130 -254 156 -520h262q-41 102 -114 229l-9 17q-6 6 -14 22q0 4 -12 21q-8 12 -8 14l251 295l39 -78q139 -279 156 -520h175v-336h-2092z" />
    <glyph glyph-name="uFEBA" unicode="&#x635;" horiz-adv-x="2805" arabic-form="final" 
d="M2414 340q0 80 -27 131q-29 53 -65 82q-41 31 -84 43q-47 12 -84 12q-43 0 -90 -10q-39 -10 -101 -41q-61 -35 -129 -82q-65 -45 -186 -135h766zM1344 0q-2 -14 -5 -29q-19 -84 -48 -151q-32 -74 -86 -150q-49 -65 -124 -129q-72 -57 -164 -90q-99 -35 -209 -35
q-174 0 -289 52q-117 53 -188 133q-72 80 -105 172q-35 96 -43 176q-6 82 2 157q8 64 33 154q16 62 57 146q33 65 80 124l168 -116q-86 -127 -86 -316q0 -67 29 -131q26 -57 78 -106q47 -41 112 -70q66 -24 133.5 -24t130.5 24q66 25 119 64q47 36 92 88q39 49 56 96
q-43 154 -219 432l221 317q144 -231 209 -432q115 113 295 256q270 224 479 324q86 41 176 41q94 0 176 -45q37 -21 86 -66q47 -47 78 -106q37 -70 57 -150q23 -90 23 -192q0 -19 -4 -78h199v-340h-1519z" />
    <glyph glyph-name="uFEBB" unicode="&#x635;" horiz-adv-x="2097" arabic-form="initial" 
d="M1757 340q0 80 -26 131q-29 53 -66 82q-41 31 -84 43q-47 12 -84 12q-43 0 -90 -10q-39 -10 -100 -41q-62 -35 -129 -82q-66 -45 -187 -135h766zM600 338h23q118 119 313 274q270 224 479 324q86 41 176 41q95 0 176 -45q37 -21 87 -66q47 -47 77 -106q37 -70 58 -150
q22 -90 22 -192q0 -19 -4 -80q-10 -74 -14 -105q-15 -83 -21 -116q-14 -74 -26 -117h-2077v336h432q-18 53 -94 217l250 264q53 -160 102 -336q6 -22 41 -143z" />
    <glyph glyph-name="uFEBC" unicode="&#x635;" horiz-adv-x="2123" arabic-form="medial" 
d="M1757 340q0 80 -27 131q-29 53 -65 82q-41 31 -84 43q-47 12 -84 12q-43 0 -90 -10q-39 -10 -101 -41q-61 -35 -129 -82q-65 -45 -186 -135h766zM-131 0v336h432q-19 53 -95 217l250 264q54 -160 103 -336q6 -22 40 -143h23q119 119 314 274q270 224 479 324
q86 41 176 41q94 0 176 -45q37 -21 86 -66q47 -47 78 -106q37 -70 57 -150q23 -90 23 -192q0 -19 -4 -78h164v-340h-2302z" />
    <glyph glyph-name="uFEBE" unicode="&#x636;" horiz-adv-x="2805" arabic-form="final" 
d="M2414 340q0 80 -27 131q-29 53 -65 82q-41 31 -84 43q-47 12 -84 12q-43 0 -90 -10q-39 -10 -101 -41q-61 -35 -129 -82q-65 -45 -186 -135h766zM1877 1493l228 -227l-228 -228l-227 228zM1344 0q-2 -14 -5 -29q-19 -84 -48 -151q-32 -74 -86 -150q-49 -65 -124 -129
q-72 -57 -164 -90q-99 -35 -209 -35q-174 0 -289 52q-117 53 -188 133q-72 80 -105 172q-35 96 -43 176q-6 82 2 157q8 64 33 154q16 62 57 146q33 65 80 124l168 -116q-86 -127 -86 -316q0 -67 29 -131q26 -57 78 -106q47 -41 112 -70q66 -24 133.5 -24t130.5 24
q66 25 119 64q47 36 92 88q39 49 56 96q-43 154 -219 432l221 317q144 -231 209 -432q115 113 295 256q270 224 479 324q86 41 176 41q94 0 176 -45q37 -21 86 -66q47 -47 78 -106q37 -70 57 -150q23 -90 23 -192q0 -19 -4 -78h199v-340h-1519z" />
    <glyph glyph-name="uFEBF" unicode="&#x636;" horiz-adv-x="2097" arabic-form="initial" 
d="M1757 340q0 80 -26 131q-29 53 -66 82q-41 31 -84 43q-47 12 -84 12q-43 0 -90 -10q-39 -10 -100 -41q-62 -35 -129 -82q-66 -45 -187 -135h766zM1221 1493l227 -227l-227 -228l-228 228zM600 338h23q118 119 313 274q270 224 479 324q86 41 176 41q95 0 176 -45
q37 -21 87 -66q47 -47 77 -106q37 -70 58 -150q22 -90 22 -192q0 -19 -4 -80q-10 -74 -14 -105q-15 -83 -21 -116q-14 -74 -26 -117h-2077v336h432q-18 53 -94 217l250 264q53 -160 102 -336q6 -22 41 -143z" />
    <glyph glyph-name="uFEC0" unicode="&#x636;" horiz-adv-x="2123" arabic-form="medial" 
d="M1757 340q0 80 -27 131q-29 53 -65 82q-41 31 -84 43q-47 12 -84 12q-43 0 -90 -10q-39 -10 -101 -41q-61 -35 -129 -82q-65 -45 -186 -135h766zM1220 1493l228 -227l-228 -228l-227 228zM-131 0v336h432q-19 53 -95 217l250 264q54 -160 103 -336q6 -22 40 -143h23
q119 119 314 274q270 224 479 324q86 41 176 41q94 0 176 -45q37 -21 86 -66q47 -47 78 -106q37 -70 57 -150q23 -90 23 -192q0 -19 -4 -78h164v-340h-2302z" />
    <glyph glyph-name="uFEC2" unicode="&#x637;" horiz-adv-x="1634" arabic-form="final" 
d="M1783 0h-1723l-186 338h342q16 18 61.5 54t61.5 57q-4 135 -4 210q0 72 -4 224q-6 110 -6 223q0 78 -5 209l320 194v-800q35 32 82 63l88 57l82 45q24 15 61 33q86 41 172 41q97 0 172 -45q35 -18 90 -63q50 -47 89 -109q38 -67 67 -164q25 -98 17 -227h223v-340z
M1328 340q0 80 -27 131q-28 53 -65 82q-41 31 -84 43q-45 12 -84 12q-41 0 -96 -10q-45 -10 -110.5 -41t-143.5 -82q-76 -49 -193 -135h803z" />
    <glyph glyph-name="uFEC3" unicode="&#x637;" horiz-adv-x="1454" arabic-form="initial" 
d="M-110 0v338h197q16 18 61 54t61 57q-4 135 -4 210q0 72 -4 224q-6 110 -6 223q0 78 -4 209l320 194v-800q34 32 81 63l89 57l81 45q25 15 62 33q86 41 172 41q96 0 172 -45q45 -24 82 -61q47 -47 76 -97q37 -63 57 -139q20 -80 20 -188q0 -19 -4 -80q-10 -74 -14 -105
l-18 -116q-15 -74 -27 -117h-1450zM1197 340q0 80 -27 131q-29 53 -66 82q-40 31 -84 43q-45 12 -83 12q-41 0 -97 -10q-45 -10 -110.5 -41t-143.5 -82q-75 -49 -192 -135h803z" />
    <glyph glyph-name="uFEC4" unicode="&#x637;" horiz-adv-x="1540" arabic-form="medial" 
d="M-110 0v338h197q16 18 61 54t61 57q-4 135 -4 210q0 72 -4 224q-6 110 -6 223q0 78 -4 209l320 194v-800q34 32 81 63l89 57l81 45q25 15 62 33q86 41 172 41q96 0 172 -45q45 -24 88 -61q55 -47 88 -97q43 -63 70 -139q26 -80 26 -188v-39q0 -31 -2 -43h250v-336h-1798z
M1197 340q0 80 -27 131q-29 53 -66 82q-40 31 -84 43q-45 12 -83 12q-41 0 -97 -10q-45 -10 -110.5 -41t-143.5 -82q-75 -49 -192 -135h803z" />
    <glyph glyph-name="uFEC6" unicode="&#x638;" horiz-adv-x="1634" arabic-form="final" 
d="M1783 0h-1723l-186 338h342q16 18 61.5 54t61.5 57q-4 135 -4 210q0 72 -4 224q-6 110 -6 223q0 78 -5 209l320 194v-800q35 32 82 63l88 57l82 45q24 15 61 33q86 41 172 41q97 0 172 -45q35 -18 90 -63q50 -47 89 -109q38 -67 67 -164q25 -98 17 -227h223v-340z
M1328 340q0 80 -27 131q-28 53 -65 82q-41 31 -84 43q-45 12 -84 12q-41 0 -96 -10q-45 -10 -110.5 -41t-143.5 -82q-76 -49 -193 -135h803zM992 1518l227 -228l-227 -227l-228 227z" />
    <glyph glyph-name="uFEC7" unicode="&#x638;" horiz-adv-x="1449" arabic-form="initial" 
d="M-110 0v338h197q16 18 61 54t61 57q-4 135 -4 210q0 72 -4 224q-6 110 -6 223q0 78 -4 209l320 194v-800q34 32 81 63l89 57l81 45q25 15 62 33q86 41 172 41q96 0 172 -45q45 -24 82 -61q47 -47 76 -97q37 -63 57 -139q20 -80 20 -188q0 -19 -4 -80q-10 -74 -14 -105
l-18 -116q-15 -74 -27 -117h-1450zM1197 340q0 80 -27 131q-29 53 -66 82q-40 31 -84 43q-45 12 -83 12q-41 0 -97 -10q-45 -10 -110.5 -41t-143.5 -82q-75 -49 -192 -135h803zM881 1518l228 -228l-228 -227l-227 227z" />
    <glyph glyph-name="uFEC8" unicode="&#x638;" horiz-adv-x="1525" arabic-form="medial" 
d="M-110 0v338h197q16 18 61 54t61 57q-4 135 -4 210q0 72 -4 224q-6 110 -6 223q0 78 -4 209l320 194v-800q34 32 81 63l89 57l81 45q25 15 62 33q86 41 172 41q96 0 172 -45q45 -24 88 -61q55 -47 88 -97q43 -63 70 -139q26 -80 26 -188v-39q0 -31 -2 -43h221v-336h-1769z
M1197 340q0 80 -27 131q-29 53 -66 82q-40 31 -84 43q-45 12 -83 12q-41 0 -97 -10q-45 -10 -110.5 -41t-143.5 -82q-75 -49 -192 -135h803zM881 1518l228 -228l-228 -227l-227 227z" />
    <glyph glyph-name="uFECA" unicode="&#x639;" horiz-adv-x="1114" arabic-form="final" 
d="M17 934q245 59 462 55q111 0 195 -14q96 -17 158 -47q65 -35 104 -92q37 -58 37 -142q0 -90 -60.5 -188t-170.5 -170h518v-336h-514q-207 0 -287 80q-131 -125 -131 -242q0 -39 18.5 -71.5t59.5 -61.5q41 -24 106 -41q60 -14 160 -14q57 4 127 18q47 13 141 41
q68 21 123 43q47 19 76 35l-135 -440q-195 -60 -351 -64q-182 -4 -309 37q-125 39 -205 113q-81 75 -114 168q-35 98 -35 200q8 308 309 527q-61 84 -88 116q-131 156 -303 148zM279 727q57 -35 116 -121q45 -67 82 -133q156 117 154 199q-4 73 -174 71q-29 -2 -88.5 -8
t-89.5 -8z" />
    <glyph glyph-name="uFECB" unicode="&#x639;" horiz-adv-x="1169" arabic-form="initial" 
d="M128 672q22 78 63 139q47 61 111 104q69 43 147 64q84 22 166 22q227 0 455 -167l-68 -271q-211 144 -330 144q-45 0 -75 -15q-37 -16 -59.5 -36.5t-37.5 -51.5q-12 -26 -12 -57q0 -37 16 -76q15 -37 52 -68q34 -30 87.5 -48.5t127.5 -18.5h340v-336h-1219v336h324
q-29 43 -48 78q-20 39 -28 78q-12 40 -12 81q-5 43 0 99z" />
    <glyph glyph-name="uFECC" unicode="&#x639;" horiz-adv-x="1286" arabic-form="medial" 
d="M202 909q253 74 493 70q109 0 193 -14q88 -15 157 -54q66 -37 105 -98q37 -61 37 -154q0 -157 -152 -323h375v-336h-598q-72 0 -117 41q-55 -41 -119 -41h-696v336h590q-37 51 -84 108q-31 35 -45 58q-25 30 -68 63q-41 29 -100 51q-57 19 -137 13zM501 670
q71 -43 122 -119q11 -16 44.5 -60.5t46.5 -68.5q141 104 139 192q-4 74 -174 72q-29 -2 -88.5 -8t-89.5 -8z" />
    <glyph glyph-name="uFECE" unicode="&#x63a;" horiz-adv-x="1114" arabic-form="final" 
d="M17 934q245 59 462 55q111 0 195 -14q96 -17 158 -47q65 -35 104 -92q37 -58 37 -142q0 -90 -60.5 -188t-170.5 -170h518v-336h-514q-207 0 -287 80q-131 -125 -131 -242q0 -39 18.5 -71.5t59.5 -61.5q41 -24 106 -41q60 -14 160 -14q57 4 127 18q47 13 141 41
q68 21 123 43q47 19 76 35l-135 -440q-195 -60 -351 -64q-182 -4 -309 37q-125 39 -205 113q-81 75 -114 168q-35 98 -35 200q8 308 309 527q-61 84 -88 116q-131 156 -303 148zM279 727q57 -35 116 -121q45 -67 82 -133q156 117 154 199q-4 73 -174 71q-29 -2 -88.5 -8
t-89.5 -8zM466 1600l227 -228l-227 -227l-225 227z" />
    <glyph glyph-name="uFECF" unicode="&#x63a;" horiz-adv-x="1169" arabic-form="initial" 
d="M125 672q23 78 64 139q45 61 111 104q69 43 147 64q84 22 166 22q227 0 455 -167l-68 -271q-211 144 -330 144q-45 0 -76 -15q-36 -16 -58.5 -36.5t-37.5 -51.5q-12 -26 -12 -57q0 -37 16 -76q15 -37 52 -68q34 -30 88 -49q51 -18 127 -18h340v-336h-1217v336h322
q-29 43 -48 78q-20 39 -28 78q-13 40 -13 81q-2 43 0 99zM582 1559l228 -228l-228 -227l-225 227z" />
    <glyph glyph-name="uFED0" unicode="&#x63a;" horiz-adv-x="1286" arabic-form="medial" 
d="M202 909q253 74 493 70q109 0 193 -14q88 -15 157 -54q66 -37 105 -98q37 -61 37 -154q0 -157 -152 -323h375v-336h-598q-72 0 -117 41q-55 -41 -119 -41h-696v336h590q-37 51 -84 108q-31 35 -45 58q-25 30 -68 63q-41 29 -100 51q-57 19 -137 13zM501 670
q71 -43 122 -119q11 -16 44.5 -60.5t46.5 -68.5q141 104 139 192q-4 74 -174 72q-29 -2 -88.5 -8t-89.5 -8zM904 1331l-227 -227l-226 227l226 228z" />
    <glyph glyph-name="uFED2" unicode="&#x641;" horiz-adv-x="1964" arabic-form="final" 
d="M1618 336q0 10 -4 47q-8 33 -14 49q-2 6 -14 41q-4 14 -11 21q-153 -31 -262 -31q-209 0 -311 43t-94 139q14 137 67.5 252t122.5 197q72 84 146 131q75 47 135 53q71 8 135 -25q59 -32 115 -100q53 -70 92 -162q45 -106 71 -200q31 -117 48 -226q18 -116 24 -229h197
v-336h-1706q-64 0 -125 20q-68 19 -123 62t-90 115q-37 69 -37 176q0 102 33 188q33 92 82 166q51 80 114 143q66 66 133 115l50 -184q-60 -62 -98 -146t-38 -157q0 -72 39 -117t121 -45h1202zM1579 1610l-227 -228l-225 228l225 227zM1133 764q109 -47 377 -12
q-45 100 -85 147t-91 47q-45 0 -84 -26q-35 -25 -66 -62q-24 -29 -43 -63q-14 -27 -8 -31z" />
    <glyph glyph-name="uFED3" unicode="&#x641;" horiz-adv-x="1163" arabic-form="initial" 
d="M-100 336h922q0 10 -4 47q-9 33 -15 49q-4 6 -14 41q-6 14 -10 21q-154 -31 -263 -31q-208 0 -310.5 43t-94.5 139q16 137 67.5 252t122.5 197q72 84 146 131q76 47 135 53q76 10 139.5 -27t118.5 -106q53 -72 96 -168q43 -109 72 -211q31 -125 47 -234q21 -126 23 -235
v-61v-78q0 -29 -4 -82q-5 -58 -9 -76h-1167zM588 1833l228 -227l-228 -228l-227 228zM336 764q109 -47 377 -12q-45 100 -85 147t-91 47q-45 0 -84 -26q-35 -25 -66 -62q-24 -29 -43 -63q-14 -27 -8 -31z" />
    <glyph glyph-name="uFED4" unicode="&#x641;" horiz-adv-x="1087" arabic-form="medial" 
d="M1197 336v-336h-1395v336h952q0 10 -4 47q-8 33 -14 49q-2 6 -14 41q-5 14 -11 21q-153 -31 -262 -31q-209 0 -311.5 43t-93.5 139q14 137 67 252t123 197q72 84 146 131q75 47 135 53q71 8 135 -25q59 -32 115 -100q53 -70 92 -162q45 -106 71 -200q31 -117 48 -226
q18 -116 24 -229h197zM730 1610l-228 -228l-225 228l225 227zM269 764q108 -47 377 -12q-45 100 -85 147t-91 47q-45 0 -84 -26q-35 -25 -66 -62q-24 -29 -43 -63q-14 -27 -8 -31z" />
    <glyph glyph-name="uFED6" unicode="&#x642;" horiz-adv-x="1632" arabic-form="final" 
d="M1787 0h-290q-21 -131 -78 -258q-60 -123 -150 -215q-92 -92 -225 -147.5t-309 -55.5q-183 0 -324 60q-131 55 -225 155q-86 94 -127 221q-39 121 -29 256q8 127 72 256q55 119 168 226l108 -133q-86 -152 -86 -281q-2 -129 60 -219q63 -92 173.5 -137t254.5 -33
q51 6 125 29q65 20 131 61q67 41 117 94q55 58 84 125h-134q-65 -2 -145 2q-74 2 -141.5 18.5t-116.5 43.5q-49 26 -76 77q-12 21 -15 62t-1 59q20 140 73.5 252.5t122.5 196.5q66 80 142 131q75 47 133 53q80 2 151 -41q72 -47 125 -121q51 -73 92 -180q39 -108 54 -221
h286v-336zM1529 1245l-227 -227l-225 227l225 228zM827 1473l227 -228l-227 -227l-225 227zM833 385q14 -18 46 -29.5t94.5 -15.5t109.5 -5t143 -1q-10 55 -28 92q-21 43 -50 74q-24 26 -57 49q-31 18 -57 18q-47 0 -82 -26q-39 -27 -66 -60q-28 -35 -43 -61
q-14 -27 -10 -35z" />
    <glyph glyph-name="uFED7" unicode="&#x642;" horiz-adv-x="1157" arabic-form="initial" 
d="M1027 1577l-227 -227l-228 227l228 227zM322 1804l228 -227l-228 -227l-227 227zM-77 336h885q0 10 -4 47q-9 33 -15 49q-2 6 -14 41q-4 14 -10 21q-154 -31 -262 -31q-209 0 -311.5 43t-94.5 139q14 137 67.5 252t123.5 197q71 84 145 131q76 47 135 53q76 10 139.5 -27
t118.5 -106q53 -72 96 -168q43 -109 72 -211q31 -125 47 -234q21 -126 23 -235v-61v-78q0 -29 -4 -82q-4 -58 -9 -76h-1130zM322 764q109 -47 377 -12q-45 100 -85 147t-91 47q-45 0 -84 -26q-35 -25 -65 -62q-25 -29 -43 -63q-15 -27 -9 -31z" />
    <glyph glyph-name="uFED8" unicode="&#x642;" horiz-adv-x="1087" arabic-form="medial" 
d="M310 1798l227 -227l-227 -228l-225 228zM1012 1571l-227 -228l-225 228l225 227zM1197 336v-336h-1395v336h952q0 10 -4 47q-8 33 -14 49q-2 6 -14 41q-5 14 -11 21q-153 -31 -262 -31q-209 0 -311.5 43t-93.5 139q14 137 67 252t123 197q72 84 146 131q75 47 135 53
q71 8 135 -25q59 -32 115 -100q53 -70 92 -162q45 -106 71 -200q31 -117 48 -226q18 -116 24 -229h197zM269 764q108 -47 377 -12q-45 100 -85 147t-91 47q-45 0 -84 -26q-35 -25 -66 -62q-24 -29 -43 -63q-14 -27 -8 -31z" />
    <glyph glyph-name="uFEDE" unicode="&#x644;" horiz-adv-x="1368" arabic-form="final" 
d="M1231 0q-8 -121 -61 -229q-56 -111 -133.5 -182.5t-192.5 -120.5q-110 -43 -237 -43q-131 0 -248 47q-113 49 -197 133t-131 198q-47 119 -47 252q0 307 219 518l131 -139q-22 -28 -39 -67q-22 -56 -26 -78q-13 -53 -15 -80q-4 -53 -4 -72q0 -78 27 -143q26 -64 74 -117
q49 -51 106 -78q62 -28 125 -28q152 0 237 97t85 269v1133l327 203v-1137h314q-2 -64 -2 -168v-117q0 -51 2 -51h-314z" />
    <glyph glyph-name="uFEDF" unicode="&#x644;" horiz-adv-x="645" arabic-form="initial" 
d="M544 0h-627v336h301v936l326 201v-1473z" />
    <glyph glyph-name="uFEE0" unicode="&#x644;" horiz-adv-x="638" arabic-form="medial" 
d="M760 336v-336h-862v336h332v936l325 201v-1137h205z" />
    <glyph glyph-name="uFEE2" unicode="&#x645;" horiz-adv-x="1431" arabic-form="final" 
d="M326 0v-653l-326 -203v854q0 92 29 160q26 63 71 104q41 39 93 57q53 17 90 17h127q16 96 51 188q33 97 92 181q57 83 131 133q72 51 164 51q100 0 184 -53q84 -58 139 -138q56 -77 95 -180q34 -90 51 -182h260v-336h-272q-2 -6 -37 -113q-13 -32 -19 -47q-59 60 -129 97
q-65 34 -131 47q-59 14 -127 14q-43 2 -123 2h-413zM676 340q61 0 121 -6q53 -2 114 -17q47 -10 99 -34q45 -25 73 -66q2 94 -18 158q-23 57 -59 100q-39 37 -78 53q-37 15 -76 11q-53 -7 -93 -51t-83 -148z" />
    <glyph glyph-name="uFEE3" unicode="&#x645;" horiz-adv-x="1185" arabic-form="initial" 
d="M181 336q16 98 53 190q43 105 100 183q55 77 137 137q78 53 166 53q96 0 170 -37q76 -39 125 -94q53 -59 90 -133q41 -94 58 -152q22 -77 30 -147q9 -64 9 -125q0 -152 -39 -264q-15 -47 -41 -107q-62 62 -131 97q-74 34 -138 47q-65 14 -135 14q-43 2 -125 2h-608v336
h279zM447 340q61 0 121 -6q53 -2 114 -17q47 -10 99 -34q45 -25 73 -66q2 94 -18 158q-23 57 -60 100q-38 37 -77 53q-37 15 -76 11q-53 -7 -93 -51t-83 -148z" />
    <glyph glyph-name="uFEE4" unicode="&#x645;" horiz-adv-x="1222" arabic-form="medial" 
d="M1115 0q-2 -6 -37 -113q-12 -32 -19 -47q-63 62 -127 97q-67 34 -127 47q-59 14 -125 14q-40 2 -120 2h-668v336h324q16 96 51 188q33 97 92 181q57 83 131 133q72 51 164 51q110 0 194 -53q80 -54 140 -138q57 -80 92 -180q29 -82 47 -182h260v-336h-272zM482 340
q63 0 121 -6q53 -2 114 -17q47 -10 99 -34q45 -25 73 -66q2 94 -18 158q-23 57 -59 100q-37 37 -78 53q-37 15 -76 11q-53 -7 -93 -51t-83 -148z" />
    <glyph glyph-name="uFEE6" unicode="&#x646;" horiz-adv-x="1269" arabic-form="final" 
d="M1409 0h-182q-31 -92 -78 -170q-55 -88 -125 -152q-77 -69 -176 -110q-100 -43 -231 -43q-174 0 -289 51t-188 131q-72 80 -105 172q-35 96 -43 176q-6 82 8 158q17 82 45 156q23 61 70 145q43 74 84 125l178 -135q-117 -172 -117 -297q0 -72 27 -131.5t74 -106.5
q45 -41 106 -69q62 -25 131 -25q68 0 131 25q66 24 119 63q49 39 92 90q39 45 56 94q-43 154 -219 433l221 317q200 -322 245 -561h166v-336zM555 809l-227 225l227 228l228 -228z" />
    <glyph glyph-name="uFEE7" unicode="&#x646;" horiz-adv-x="915" arabic-form="initial" 
d="M674 856q158 -317 158 -586q0 -127 -25 -270h-897v336h631q-41 102 -115 229l-8 17q-6 6 -14 22q0 4 -13 21q-8 12 -8 14l252 295zM584 1194l-228 -227l-225 227l232 236z" />
    <glyph glyph-name="uFEE8" unicode="&#x646;" horiz-adv-x="735" arabic-form="medial" 
d="M848 336v-336h-946v336h475q-35 84 -162 303l256 293q166 -326 193 -596h184zM525 1227l-228 -228l-225 228l225 227z" />
    <glyph glyph-name="uFEEA" unicode="&#x647;" horiz-adv-x="1153" arabic-form="final" 
d="M641 0h-590q-16 -2 -27 14q-12 19 -14 39q-4 29 -4 45v39q6 90 33 182q24 93 67 187q37 82 101 172q57 80 131 143q69 62 157 99q86 34 179 34q69 0 123 -59q55 -66 94 -152q37 -86 63 -200q25 -107 37 -207h264v-336h-506q-14 74 -47 217zM530 612q-63 0 -136 -73.5
t-120 -206.5h402q-25 92 -37 133q-15 43 -35 86q-14 27 -35 47q-16 14 -39 14z" />
    <glyph glyph-name="uFEEB" unicode="&#x647;" horiz-adv-x="1431" arabic-form="initial" 
d="M113 336q-6 4 -12 16q-8 21 -10 35l-7 43q-4 29 -4 35q0 106 57.5 205.5t159.5 154.5q-12 11 -37 35q-16 17 -32 43q-17 25 -25 58q-10 34 -10 73l147 140q0 -50 35 -84.5t86 -59.5q55 -26 107 -41l102 -33l172 -55q90 -31 182 -78q84 -43 164 -116q74 -72 115 -175
q47 -135 47 -249q0 -76 -18 -156q-17 -74 -43 -152q-23 -59 -56 -127q-20 -45 -47 -92q-39 41 -82 92q-35 43 -80 72q-45 31 -118 49q-74 21 -201 31h-807v336h215zM502 664q-41 0 -72 -15q-32 -14 -55 -41q-26 -28 -37 -59q-12 -33 -12 -70t12 -65q9 -25 27 -47
q14 -19 33 -27q18 -10 32 -12q58 -4 99 47t51 160v26q0 23 -8 45q-12 29 -23 41q-16 17 -47 17zM770 332q35 -2 89 -15q30 -10 67 -28q29 -15 55 -37l54 -41q12 68 4 125q-8 53 -39 110q-33 54 -76 93q-47 41 -106 65q20 -61 8 -127q-15 -94 -56 -145z" />
    <glyph glyph-name="uFEEC" unicode="&#x647;" horiz-adv-x="1421" arabic-form="medial" 
d="M1545 336l2 -336h-252q-51 -143 -109 -244q-39 41 -82 92q-35 43 -80 72q-45 31 -118 49q-74 21 -201 31h-807v336h213q-8 4 -10 18q-8 21 -10 35q-5 12 -9 41q-2 14 -2 35q0 106 57.5 205.5t159.5 154.5q-12 11 -37 35q-16 17 -32 43q-17 25 -25 58q-10 34 -10 73
l147 140q0 -50 35 -84.5t86 -59.5q55 -26 107 -41l102 -33l172 -55q90 -31 182 -78q84 -43 164 -116q74 -72 115 -175q33 -90 43 -196h199zM502 664q-41 0 -72 -15q-32 -14 -55 -41q-26 -28 -37 -59q-12 -33 -12 -70t12 -65q9 -25 27 -47q14 -19 33 -27q18 -10 32 -12
q58 -4 99 47t51 160v26q0 23 -8 45q-12 29 -23 41q-16 17 -47 17zM770 332q35 -2 89 -15q30 -10 67 -28q29 -15 55 -37l54 -41q12 68 4 125q-8 53 -39 110q-33 54 -76 93q-47 41 -106 65q20 -61 8 -127q-15 -94 -56 -145z" />
    <glyph glyph-name="uFEEE" unicode="&#x648;" horiz-adv-x="1038" arabic-form="final" 
d="M1154 0h-207q-65 -375 -344 -672l-284 258q84 66 141 123q43 47 94 115q33 45 62 100l41 88q-68 -8 -168 -8q-84 0 -172 16q-84 17 -144 46q-63 30 -82 84q-14 34 -8 116q2 70 29 164q18 76 63 180q41 97 97 168q53 72 127 123q71 47 151 47q100 0 176 -59
q72 -62 123 -152q47 -86 76 -196q26 -107 37 -201h190zM360 356q10 -16 28 -26q21 -13 60 -21q35 -8 100 -8q66 -2 150 4q-5 47 -13 103q-10 57 -30 102q-21 43 -54 80q-35 31 -78 31q-28 0 -61 -33q-37 -37 -61 -78q-27 -43 -39 -88q-15 -43 -2 -66z" />
    <glyph glyph-name="uFEF0" unicode="&#x649;" horiz-adv-x="1458" arabic-form="final" 
d="M1612 336v-336h-145q-103 0 -119 2q-29 -74 -90 -160q-60 -86 -152 -155q-92 -72 -217 -117q-123 -45 -283 -45q-172 0 -284 57q-121 60 -189 144q-71 88 -102 188q-31 94 -35 192q-2 80 21 177q22 94 61 174q39 90 86 161q43 68 102 138l134 -131q-142 -197 -142 -410
q0 -70 29 -133q26 -59 74 -107q45 -41 106 -69q62 -25 129 -25q74 0 133 15q70 16 125 43q70 32 111 59q53 37 86 70q-101 36 -180 100q-17 12 -29 25q-10 10 -31 38q-18 25 -26 52q-11 30 -11 63v299q74 -78 140 -131q65 -55 149 -96q76 -39 168 -62q84 -20 199 -20h182z
" />
    <glyph glyph-name=".notdef" horiz-adv-x="1024" 
d="M128 0v1254h768v-1254h-768zM256 128h512v998h-512v-998z" />
    <glyph glyph-name=".null" 
 />
    <glyph glyph-name="nonmarkingreturn" horiz-adv-x="406" 
 />
    <glyph glyph-name="space" unicode=" " horiz-adv-x="406" 
 />
    <glyph glyph-name="exclam" unicode="!" horiz-adv-x="474" 
d="M170 355l-76 1110l257 110l-49 -1134zM108 59l-44 41l31 29l117 122l89 -87l89 -82l-150 -151z" />
    <glyph glyph-name="percent" unicode="%" horiz-adv-x="1173" 
d="M185 1285l18 19q11 11 28 30l97 111q15 -14 38 -38l133 -147l-138 -162zM56 -78l804 1519h196l-801 -1519h-199zM685 193l18 19q11 11 28 30l97 111q15 -14 38 -38l133 -147l-138 -162z" />
    <glyph glyph-name="parenleft" unicode="(" horiz-adv-x="553" 
d="M456 -399q-200 224 -297 441t-97 437q0 108 26 221t77 226q50 113 125 224t174 216h19q-131 -226 -199 -448q-69 -222 -69 -445q0 -217 68 -433q67 -216 190 -439h-17z" />
    <glyph glyph-name="parenright" unicode=")" horiz-adv-x="556" 
d="M61 -399q123 223 191 439q67 216 67 433q0 223 -68 445q-69 222 -200 448h19q99 -105 174 -216t126 -224q50 -113 76 -226t26 -221q0 -220 -97 -437t-297 -441h-17z" />
    <glyph glyph-name="asterisk" unicode="*" horiz-adv-x="909" 
d="M807 1243l39 -119l-289 -98l182 -244l-100 -77l-184 251l-179 -251l-102 77l178 244l-289 98l39 119l291 -98v305h123v-305z" />
    <glyph glyph-name="plus" unicode="+" horiz-adv-x="1364" 
d="M614 688v467h136v-467h467v-135h-467v-467h-136v467h-467v135h467z" />
    <glyph glyph-name="comma" unicode="," horiz-adv-x="377" 
d="M193 -7q-16 20 -37 30q-21 9 -43 11q-23 1 -45 -5t-41 -17q15 45 36 71q20 26 44 39q23 12 47 15q24 2 46 0q24 -2 46 -12t39 -27t27 -40q10 -24 9 -52q-1 -51 -25 -107q-24 -57 -59 -111q-35 -55 -74 -103q-40 -49 -72 -82q-7 -7 -7 -5q-1 1 2 8l21 37q0 1 9 14l21 33
q13 21 28 49q14 27 27 58q13 30 22 61q8 31 8 59q0 24 -7 41q-7 19 -22 35z" />
    <glyph glyph-name="hyphen" unicode="-" horiz-adv-x="682" 
d="M592 565v-147h-502v147h502z" />
    <glyph glyph-name="period" unicode="." horiz-adv-x="445" 
d="M395 132q-17 -17 -50 -48l-74 -67q-15 -14 -28 -25t-27 -25l-92 75l-89 76q13 14 36 35l106 97q24 21 41 38q11 -11 24 -21z" />
    <glyph glyph-name="slash" unicode="/" horiz-adv-x="797" 
d="M133 -69q-35 12 -60 22l-56 21l623 1548l116 -45z" />
    <glyph glyph-name="zero" unicode="0" horiz-adv-x="615" 
d="M148 377l142 178l176 -131l-129 -175z" />
    <glyph glyph-name="zero" unicode="&#x6f0;" horiz-adv-x="615" 
d="M148 377l142 178l176 -131l-129 -175z" />
    <glyph glyph-name="zero" unicode="&#x660;" horiz-adv-x="615" 
d="M148 377l142 178l176 -131l-129 -175z" />
    <glyph glyph-name="one" unicode="1" horiz-adv-x="891" 
d="M315 718l99 194q162 -185 162 -529q0 -265 -91 -377q-18 6 -18 71q0 36 2 51v67q0 312 -154 523z" />
    <glyph glyph-name="one" unicode="&#x6f1;" horiz-adv-x="891" 
d="M315 718l99 194q162 -185 162 -529q0 -265 -91 -377q-18 6 -18 71q0 36 2 51v67q0 312 -154 523z" />
    <glyph glyph-name="one" unicode="&#x661;" horiz-adv-x="891" 
d="M315 718l99 194q162 -185 162 -529q0 -265 -91 -377q-18 6 -18 71q0 36 2 51v67q0 312 -154 523z" />
    <glyph glyph-name="two" unicode="2" horiz-adv-x="891" 
d="M675 935q20 0 20 -69q0 -115 -57 -190q-63 -82 -174 -82q49 -119 49 -278q0 -73 -18 -181q-25 -149 -65 -149q-12 0 -18 44q0 325 -110 534q-42 80 -107 145l99 214q50 -132 187 -132q85 0 135 64q14 23 28 45q23 35 31 35z" />
    <glyph glyph-name="two" unicode="&#x6f2;" horiz-adv-x="891" 
d="M675 935q20 0 20 -69q0 -115 -57 -190q-63 -82 -174 -82q49 -119 49 -278q0 -73 -18 -181q-25 -149 -65 -149q-12 0 -18 44q0 325 -110 534q-42 80 -107 145l99 214q50 -132 187 -132q85 0 135 64q14 23 28 45q23 35 31 35z" />
    <glyph glyph-name="two" unicode="&#x662;" horiz-adv-x="891" 
d="M675 935q20 0 20 -69q0 -115 -57 -190q-63 -82 -174 -82q49 -119 49 -278q0 -73 -18 -181q-25 -149 -65 -149q-12 0 -18 44q0 325 -110 534q-42 80 -107 145l99 214q50 -132 187 -132q85 0 135 64q14 23 28 45q23 35 31 35z" />
    <glyph glyph-name="three" unicode="3" horiz-adv-x="891" 
d="M758 967q20 0 20 -51q0 -100 -48 -190q-58 -108 -151 -108q-70 0 -97 69q-9 -37 -42 -64.5t-72 -30.5q51 -103 51 -268q0 -80 -20 -199q-27 -162 -69 -162q-10 0 -16 29v45q0 392 -201 748l75 186q25 -52 91 -146q28 -28 71 -28q120 0 152 113q14 47 27 47q7 0 27.5 -70
t75.5 -72q50 -1 72 29q13 19 25 76q9 47 29 47z" />
    <glyph glyph-name="three" unicode="&#x6f3;" horiz-adv-x="891" 
d="M758 967q20 0 20 -51q0 -100 -48 -190q-58 -108 -151 -108q-70 0 -97 69q-9 -37 -42 -64.5t-72 -30.5q51 -103 51 -268q0 -80 -20 -199q-27 -162 -69 -162q-10 0 -16 29v45q0 392 -201 748l75 186q25 -52 91 -146q28 -28 71 -28q120 0 152 113q14 47 27 47q7 0 27.5 -70
t75.5 -72q50 -1 72 29q13 19 25 76q9 47 29 47z" />
    <glyph glyph-name="three" unicode="&#x663;" horiz-adv-x="891" 
d="M758 967q20 0 20 -51q0 -100 -48 -190q-58 -108 -151 -108q-70 0 -97 69q-9 -37 -42 -64.5t-72 -30.5q51 -103 51 -268q0 -80 -20 -199q-27 -162 -69 -162q-10 0 -16 29v45q0 392 -201 748l75 186q25 -52 91 -146q28 -28 71 -28q120 0 152 113q14 47 27 47q7 0 27.5 -70
t75.5 -72q50 -1 72 29q13 19 25 76q9 47 29 47z" />
    <glyph glyph-name="four" unicode="4" horiz-adv-x="891" 
d="M532 986l-55 -197q-2 -2 -15 -11q-21 -15 -56 -38q-94 -61 -94 -85q0 -12 61 -42q39 -20 77 -39q29 -23 29 -63q0 -46 -53 -141q-67 -121 -75 -143q0 -40 156 -40q130 0 170 22l-56 -132q-35 -81 -193 -81q-62 0 -116 20q-74 26 -74 77t60.5 177t60.5 135q0 15 -73 42.5
t-73 63.5q0 127 100.5 275.5t218.5 199.5z" />
    <glyph glyph-name="four" unicode="&#x6f4;" horiz-adv-x="891" 
d="M532 986l-55 -197q-2 -2 -15 -11q-21 -15 -56 -38q-94 -61 -94 -85q0 -12 61 -42q39 -20 77 -39q29 -23 29 -63q0 -46 -53 -141q-67 -121 -75 -143q0 -40 156 -40q130 0 170 22l-56 -132q-35 -81 -193 -81q-62 0 -116 20q-74 26 -74 77t60.5 177t60.5 135q0 15 -73 42.5
t-73 63.5q0 127 100.5 275.5t218.5 199.5z" />
    <glyph glyph-name="four" unicode="&#x664;" horiz-adv-x="891" 
d="M532 986l-55 -197q-2 -2 -15 -11q-21 -15 -56 -38q-94 -61 -94 -85q0 -12 61 -42q39 -20 77 -39q29 -23 29 -63q0 -46 -53 -141q-67 -121 -75 -143q0 -40 156 -40q130 0 170 22l-56 -132q-35 -81 -193 -81q-62 0 -116 20q-74 26 -74 77t60.5 177t60.5 135q0 15 -73 42.5
t-73 63.5q0 127 100.5 275.5t218.5 199.5z" />
    <glyph glyph-name="five" unicode="5" horiz-adv-x="891" 
d="M470 890q68 2 122 -77q107 -158 107 -436q0 -160 -62 -258q-75 -117 -226 -117q-99 0 -159 71.5t-60 194.5q0 120 44.5 269t108 250.5t125.5 102.5zM453 635q-72 0 -125 -118q-45 -99 -45 -182q0 -46 55 -74q45 -24 95 -24q47 0 106 22q73 27 73 65q0 100 -41 205.5
t-118 105.5z" />
    <glyph glyph-name="five" unicode="&#x6f5;" horiz-adv-x="891" 
d="M470 890q68 2 122 -77q107 -158 107 -436q0 -160 -62 -258q-75 -117 -226 -117q-99 0 -159 71.5t-60 194.5q0 120 44.5 269t108 250.5t125.5 102.5zM453 635q-72 0 -125 -118q-45 -99 -45 -182q0 -46 55 -74q45 -24 95 -24q47 0 106 22q73 27 73 65q0 100 -41 205.5
t-118 105.5z" />
    <glyph glyph-name="five" unicode="&#x665;" horiz-adv-x="891" 
d="M470 890q68 2 122 -77q107 -158 107 -436q0 -160 -62 -258q-75 -117 -226 -117q-99 0 -159 71.5t-60 194.5q0 120 44.5 269t108 250.5t125.5 102.5zM453 635q-72 0 -125 -118q-45 -99 -45 -182q0 -46 55 -74q45 -24 95 -24q47 0 106 22q73 27 73 65q0 100 -41 205.5
t-118 105.5z" />
    <glyph glyph-name="six" unicode="6" horiz-adv-x="891" 
d="M622 957v-130q0 -6 -1 -48.5t-1 -79.5q0 -303 100 -496l-100 -191q-124 193 -124 456q0 124 21 254q-63 -19 -138 -19q-157 0 -209 74q0 127 13 180q4 10 10 10q45 -25 111 -57q48 -16 116 -16q65 0 107 18q39 17 58.5 38t24.5 21q7 0 12 -14z" />
    <glyph glyph-name="six" unicode="&#x6f6;" horiz-adv-x="891" 
d="M622 957v-130q0 -6 -1 -48.5t-1 -79.5q0 -303 100 -496l-100 -191q-124 193 -124 456q0 124 21 254q-63 -19 -138 -19q-157 0 -209 74q0 127 13 180q4 10 10 10q45 -25 111 -57q48 -16 116 -16q65 0 107 18q39 17 58.5 38t24.5 21q7 0 12 -14z" />
    <glyph glyph-name="six" unicode="&#x666;" horiz-adv-x="891" 
d="M622 957v-130q0 -6 -1 -48.5t-1 -79.5q0 -303 100 -496l-100 -191q-124 193 -124 456q0 124 21 254q-63 -19 -138 -19q-157 0 -209 74q0 127 13 180q4 10 10 10q45 -25 111 -57q48 -16 116 -16q65 0 107 18q39 17 58.5 38t24.5 21q7 0 12 -14z" />
    <glyph glyph-name="seven" unicode="7" horiz-adv-x="1095" 
d="M914 986l-24 -238q-209 -209 -272 -474q-14 -60 -42 -189q-22 -97 -45 -97q-12 3 -35 99q-32 142 -40 168q-25 85 -85 209q-64 132 -191 280l30 229q58 -48 165 -225q112 -185 166 -334q53 148 161 326.5t212 245.5z" />
    <glyph glyph-name="seven" unicode="&#x6f7;" horiz-adv-x="1095" 
d="M914 986l-24 -238q-209 -209 -272 -474q-14 -60 -42 -189q-22 -97 -45 -97q-12 3 -35 99q-32 142 -40 168q-25 85 -85 209q-64 132 -191 280l30 229q58 -48 165 -225q112 -185 166 -334q53 148 161 326.5t212 245.5z" />
    <glyph glyph-name="seven" unicode="&#x667;" horiz-adv-x="1095" 
d="M914 986l-24 -238q-209 -209 -272 -474q-14 -60 -42 -189q-22 -97 -45 -97q-12 3 -35 99q-32 142 -40 168q-25 85 -85 209q-64 132 -191 280l30 229q58 -48 165 -225q112 -185 166 -334q53 148 161 326.5t212 245.5z" />
    <glyph glyph-name="eight" unicode="8" horiz-adv-x="1095" 
d="M558 981q23 0 55 -136q86 -365 300 -622l-35 -225q-82 86 -183 264q-90 157 -143 291q-45 -143 -148 -313q-118 -196 -221 -256l10 227q230 238 296 537q29 130 37 179q8 54 32 54z" />
    <glyph glyph-name="eight" unicode="&#x6f8;" horiz-adv-x="1095" 
d="M558 981q23 0 55 -136q86 -365 300 -622l-35 -225q-82 86 -183 264q-90 157 -143 291q-45 -143 -148 -313q-118 -196 -221 -256l10 227q230 238 296 537q29 130 37 179q8 54 32 54z" />
    <glyph glyph-name="eight" unicode="&#x668;" horiz-adv-x="1095" 
d="M558 981q23 0 55 -136q86 -365 300 -622l-35 -225q-82 86 -183 264q-90 157 -143 291q-45 -143 -148 -313q-118 -196 -221 -256l10 227q230 238 296 537q29 130 37 179q8 54 32 54z" />
    <glyph glyph-name="nine" unicode="9" horiz-adv-x="891" 
d="M399 955q100 0 134 -74q22 -49 22 -162t46 -287q48 -184 104 -268l-77 -184q-60 61 -114 224q-51 151 -54 250q-20 -35 -63 -61t-81 -26q-40 0 -85 49t-45 101q0 260 124 387q49 51 89 51zM371 748q-61 -11 -93 -104q0 -32 28 -54t61 -22q85 0 85 71q0 109 -81 109z" />
    <glyph glyph-name="nine" unicode="&#x6f9;" horiz-adv-x="891" 
d="M399 955q100 0 134 -74q22 -49 22 -162t46 -287q48 -184 104 -268l-77 -184q-60 61 -114 224q-51 151 -54 250q-20 -35 -63 -61t-81 -26q-40 0 -85 49t-45 101q0 260 124 387q49 51 89 51zM371 748q-61 -11 -93 -104q0 -32 28 -54t61 -22q85 0 85 71q0 109 -81 109z" />
    <glyph glyph-name="nine" unicode="&#x669;" horiz-adv-x="891" 
d="M399 955q100 0 134 -74q22 -49 22 -162t46 -287q48 -184 104 -268l-77 -184q-60 61 -114 224q-51 151 -54 250q-20 -35 -63 -61t-81 -26q-40 0 -85 49t-45 101q0 260 124 387q49 51 89 51zM371 748q-61 -11 -93 -104q0 -32 28 -54t61 -22q85 0 85 71q0 109 -81 109z" />
    <glyph glyph-name="colon" unicode=":" horiz-adv-x="426" 
d="M200 531q37 0 61.5 -24t24.5 -61q0 -86 -86 -89q-85 -3 -85 85q0 89 85 89zM203 174q38 0 63 -22q22 -25 22 -59q0 -89 -85 -93q-38 -2 -61 24t-23 63t23.5 62t60.5 25z" />
    <glyph glyph-name="equal" unicode="=" horiz-adv-x="1233" 
d="M113 176h978v-103h-978v103zM113 450h978v-105h-978v105z" />
    <glyph glyph-name="bracketleft" unicode="[" horiz-adv-x="542" 
d="M111 1291h290v-81h-194v-1784h194v-85h-290v1950z" />
    <glyph glyph-name="bracketright" unicode="]" horiz-adv-x="542" 
d="M401 1291h-290v-81h195v-1784h-195v-85h290v1950z" />
    <glyph glyph-name="braceleft" unicode="{" horiz-adv-x="499" 
d="M353 1219q-18 12 -41 12q-79 0 -79 -130q0 -83 37 -197q42 -132 42 -207q0 -144 -121 -253q37 -18 68 -81q9 -17 19 -47q2 -8 8 -25q1 -3 6 -21q22 -56 22 -116q0 -87 -44 -215q-50 -143 -51 -182q-1 -62 28 -107.5t63 -45.5q18 0 38 15q0 -81 -66 -81q-71 0 -110 80
q-30 63 -30 141q0 96 34 211q45 151 45 255q0 181 -126 209q112 57 112 223q0 82 -24 166q-41 142 -41 227q0 114 44.5 178.5t95.5 64.5q62 0 71 -74z" />
    <glyph glyph-name="braceright" unicode="}" horiz-adv-x="517" 
d="M149 -401q22 -13 43 -13q81 0 81 134q0 86 -39 205q-42 130 -42 217q0 151 126 263q-62 40 -88 126q-40 135 -40 176q0 95 65 284q31 92 32 130q2 42 -12 81q-27 77 -81 77q-21 0 -41 -14q0 85 70 85q76 0 115 -82q31 -63 31 -149q0 -97 -37 -219q-47 -156 -47 -267
q0 -184 132 -217q-116 -64 -116 -233q0 -88 25 -173q43 -147 43 -237q0 -117 -45 -184q-47 -70 -101 -70q-64 0 -74 80z" />
    <glyph glyph-name="guillemotleft" unicode="&#xab;" horiz-adv-x="854" 
d="M711 129l-340 400l340 393h87l-226 -393l232 -400h-93zM408 129l-338 400l340 393h87l-226 -393l226 -400h-89z" />
    <glyph glyph-name="periodcentered" unicode="&#xb7;" horiz-adv-x="406" 
d="M201 517q-77 0 -77 83q0 85 77 85q75 0 75 -85q0 -34 -21 -58.5t-54 -24.5z" />
    <glyph glyph-name="periodcentered" unicode="&#x2219;" horiz-adv-x="406" 
d="M201 517q-77 0 -77 83q0 85 77 85q75 0 75 -85q0 -34 -21 -58.5t-54 -24.5z" />
    <glyph glyph-name="periodcentered" unicode="&#x2d9;" horiz-adv-x="406" 
d="M201 517q-77 0 -77 83q0 85 77 85q75 0 75 -85q0 -34 -21 -58.5t-54 -24.5z" />
    <glyph glyph-name="guillemotright" unicode="&#xbb;" horiz-adv-x="854" 
d="M357 129l226 400l-226 393h87l340 -393l-338 -400h-89zM50 129l232 400l-226 393h87l340 -393l-340 -400h-93z" />
    <glyph glyph-name="multiply" unicode="&#xd7;" horiz-adv-x="937" 
d="M738 144l-276 272l-273 -272l-76 73l270 276l-274 279l84 69l269 -273l276 273l73 -73l-276 -275l278 -276z" />
    <glyph glyph-name="divide" unicode="&#xf7;" horiz-adv-x="937" 
d="M555 764q0 -41 -26 -69q-29 -30 -71 -30q-35 0 -64 30.5t-29 68.5q0 93 97 93q93 0 93 -93zM93 434v107h747v-107h-747zM555 213q0 -67 -56 -89q-15 -9 -37 -9q-42 0 -69.5 28t-27.5 70q0 40 28.5 68.5t68.5 28.5q36 0 64.5 -28t28.5 -69z" />
    <glyph glyph-name="u060C" unicode="&#x60c;" horiz-adv-x="502" 
d="M331 684q3 1 -3 -9l-38 -78q-23 -47 -43 -100t-34 -108q-15 -55 -15 -103q0 -36 10 -65q10 -30 30 -60q26 -36 62 -52t75 -16q25 0 48 6q-19 -46 -43 -77q-24 -32 -50 -51t-52 -26t-50 -4h1q-26 4 -50 18q-25 13 -44 36q-19 22 -31 53t-12 70q0 70 22 148q21 78 55 153
t76 143q41 67 80 117q3 4 6 5z" />
    <glyph glyph-name="u061B" unicode="&#x61b;" horiz-adv-x="547" 
d="M292 -170q-3 -2 -6 -6l-104 102q-20 19 -36 33l29 27l89 93l109 -105q18 -17 32 -29l-13 -15zM364 944q3 1 -3 -9l-38 -78q-23 -47 -43 -100t-34 -108q-15 -55 -15 -103q0 -36 10 -65q10 -30 30 -60q26 -36 62 -52t75 -16q25 0 48 6q-19 -46 -43 -77q-24 -32 -50 -51
t-52 -26t-50 -4h1q-26 4 -50 18q-25 13 -44 36q-19 22 -31 53t-12 70q0 70 22 148q21 78 55 153t76 143q41 67 80 117q3 4 6 5z" />
    <glyph glyph-name="u061F" unicode="&#x61f;" horiz-adv-x="738" 
d="M404 963q96 0 159 -62.5t63 -158.5q-1 -7 -4 -41q-21 -91 -96 -91q-36 0 -65 25q-27 22 -30 55q0 26 18 50t43 24q35 0 59 -36q0 52 -34 90.5t-90 38.5q-58 0 -108 -47.5t-50 -104.5q0 -58 22 -93q15 -23 79 -93q93 -101 93 -190q0 -37 -9 -77q-14 -57 -39 -57
q-14 0 -24 48q-5 31 -11 63q-6 26 -52 85q-33 42 -146 120q-94 65 -96 188q-1 125 99 198q90 66 219 66zM326 79q0 79 78 79q80 0 80 -79t-80 -79q-78 0 -78 79z" />
    <glyph glyph-name="u0621" unicode="&#x621;" horiz-adv-x="841" 
d="M105 219q-54 19 -80 45q-33 29 -47 55q-13 23 -21 58q-4 37 -4 55q0 64 35 143q35 72 98 140q57 63 139 104q74 39 164 35h-4q105 0 180 -37l-26 -301q-68 31 -105 31h-53q-53 0 -102.5 -37t-79.5 -98q10 -11 30 -21q46 -20 84 -20q121 0 459 155l-135 -385
q-250 -59 -461 -215q-92 -65 -166 -145l-2 196q2 58 29 127.5t68 114.5z" />
    <glyph glyph-name="u0640" unicode="&#x640;" horiz-adv-x="465" 
d="M485 0h-505v179h505v-179z" />
    <glyph glyph-name="u064B" unicode="&#x64b;" 
d="M91 1757l385 150l-20 -91l-393 -150zM132 1966l385 150l-21 -89l-395 -152z" />
    <glyph glyph-name="u064C" unicode="&#x64c;" 
d="M440 2040q63 0 63 -84q0 -66 -48 -132q-59 -79 -132 -115q-82 -41 -209 -79q-54 -16 -81 -16q-33 0 -33 16q0 11 30 30q20 12 40 25q42 31 48 36q49 40 49 69q0 24 -39 24q-33 -3 -91 -18q0 51 51.5 86.5t88.5 35.5q75 0 75 -71q0 -39 -26 -103q12 0 90.5 48t95.5 73
q-57 25 -57 97q0 78 85 78z" />
    <glyph glyph-name="u064D" unicode="&#x64d;" 
d="M26 -1292l385 150l-20 -92l-393 -150zM66 -1084l386 150l-21 -89l-395 -152z" />
    <glyph glyph-name="u064E" unicode="&#x64e;" 
d="M28 1828l386 150l-21 -91l-393 -150z" />
    <glyph glyph-name="u064F" unicode="&#x64f;" 
d="M385 2052q63 0 63 -85q0 -71 -58 -145q-53 -68 -122 -100q-81 -38 -209 -77q-13 -8 -37 -8q-22 0 -22 12q0 25 99 71q93 42 158 83q87 54 100 75q-65 15 -65 67q0 34 30 70.5t63 36.5z" />
    <glyph glyph-name="u0650" unicode="&#x650;" 
d="M64 -1095l385 150l-20 -90l-393 -152z" />
    <glyph glyph-name="u0651" unicode="&#x651;" 
d="M248 1850q-57 -87 -142 -87q-60 0 -85 53q-18 38 -18 66q0 34 22 90q25 64 53 64q20 0 20 -20q0 -8 -12 -49q-15 -32 -15 -54q0 -41 61 -41q56 10 76 43q17 40 35 81q27 61 48 61q18 0 18 -21l-4 -24l-10 -59q0 -38 38 -44q31 0 41 24q5 13 10 33q8 11 10 22l6 24
q15 56 30 59q23 0 23 -29q0 -21 -6 -54l-8 -29l-2 -12q-40 -144 -118 -144q-43 0 -71 47z" />
    <glyph glyph-name="u0652" unicode="&#x652;" 
d="M257 2103q65 0 101 -57q31 -49 31 -119q0 -98 -51 -172q-56 -83 -150 -83q-116 0 -116 142q0 97 56.5 193t128.5 96zM142 1866q0 -63 74 -63q33 0 67 14q41 18 45 45q-27 118 -93 118q-33 0 -63 -34.5t-30 -79.5z" />
    <glyph glyph-name="zeronojoin" unicode="&#x200c;" horiz-adv-x="45" 
 />
    <glyph glyph-name="zerojoin" unicode="&#x200d;" horiz-adv-x="45" 
 />
    <glyph glyph-name="lefttoright" unicode="&#x200e;" horiz-adv-x="32" 
d="M215 1144l-95 -98l-25 20l63 63h-126v-1129h-32v1160h154l-59 59l25 22z" />
    <glyph glyph-name="righttoleft" unicode="&#x200f;" horiz-adv-x="32" 
d="M32 0h-32v1129h-126l61 -63l-20 -20l-100 98l100 97l20 -22l-59 -59h156v-1160z" />
    <glyph glyph-name="quoteleft" unicode="&#x2018;" horiz-adv-x="350" 
d="M156 1189l-27 432q-2 34 12 66q16 38 47 38q63 0 57 -96l-28 -440h-61z" />
    <glyph glyph-name="quoteright" unicode="&#x2019;" horiz-adv-x="350" 
d="M156 1725l-27 -432q-2 -34 12 -65q16 -39 47 -39q63 0 57 96l-28 440h-61z" />
    <glyph glyph-name="quotedblleft" unicode="&#x201c;" horiz-adv-x="564" 
d="M130 1214l-27 432q-2 34 12 65q16 39 47 39q63 0 57 -96l-28 -440h-61zM365 1214l-28 432q-3 39 16 75q15 29 43 29q62 0 56 -96l-28 -440h-59z" />
    <glyph glyph-name="quotedblright" unicode="&#x201d;" horiz-adv-x="564" 
d="M130 1750l-27 -432q-2 -34 12 -65q16 -39 47 -39q63 0 57 96l-28 440h-61zM365 1750l-28 -432q-3 -39 16 -75q15 -29 43 -29q62 0 56 96l-28 440h-59z" />
    <glyph glyph-name="guilsinglleft" unicode="&#x2039;" horiz-adv-x="705" 
d="M569 824q-148 -97 -224.5 -226.5t-76.5 -264.5q0 -146 88 -279q79 -120 213 -205q-215 93 -324 222t-109 267q0 204 212 367q98 75 221 119z" />
    <glyph glyph-name="guilsinglright" unicode="&#x203a;" horiz-adv-x="705" 
d="M136 824q148 -97 224.5 -226.5t76.5 -264.5q0 -146 -88 -279q-80 -120 -213 -205q214 93 323.5 222t109.5 267q0 204 -213 367q-97 75 -220 119z" />
    <glyph glyph-name="uE820" unicode="&#xe820;" 
d="M120 1829l386 150l-21 -91l-393 -150z" />
    <glyph glyph-name="uE821" unicode="&#xe821;" 
d="M385 1976q63 0 63 -85q0 -71 -58 -145q-53 -68 -122 -100q-81 -38 -209 -77q-13 -8 -37 -8q-22 0 -22 12q0 25 99 71q93 42 158 83q87 54 100 75q-65 15 -65 67q0 34 30 70.5t63 36.5z" />
    <glyph glyph-name="uE822" unicode="&#xe822;" 
d="M253 1966q65 0 101 -57q31 -49 31 -119q0 -98 -51 -172q-56 -83 -150 -83q-116 0 -116 142q0 97 56.5 193t128.5 96zM138 1729q0 -63 74 -63q33 0 67 14q41 18 45 45q-27 118 -93 118q-33 0 -63 -34.5t-30 -79.5z" />
    <glyph glyph-name="uE823" unicode="&#xe823;" 
d="M28 1707l385 150l-20 -91l-393 -150zM69 1916l385 150l-21 -89l-395 -152z" />
    <glyph glyph-name="uE824" unicode="&#xe824;" 
d="M536 2008q63 0 63 -84q0 -66 -48 -132q-59 -79 -132 -115q-82 -41 -209 -79q-54 -16 -81 -16q-33 0 -33 16q0 11 30 30q20 12 40 25q42 31 48 36q49 40 49 69q0 24 -39 24q-33 -3 -91 -18q0 51 51.5 86.5t88.5 35.5q75 0 75 -71q0 -39 -26 -103q12 0 90.5 48t95.5 73
q-57 25 -57 97q0 78 85 78z" />
    <glyph glyph-name="uE825" unicode="&#xe825;" 
d="M367 1781q-57 -87 -142 -87q-60 0 -85 53q-18 38 -18 66q0 34 22 90q25 64 53 64q20 0 20 -20q0 -8 -12 -49q-15 -32 -15 -54q0 -41 61 -41q56 10 76 43q17 40 35 81q27 61 48 61q18 0 18 -21l-4 -24l-10 -59q0 -38 38 -44q31 0 41 24q5 13 10 33q8 11 10 22l6 24
q15 56 30 59q23 0 23 -29q0 -21 -6 -54l-8 -29l-2 -12q-40 -144 -118 -144q-43 0 -71 47z" />
    <glyph glyph-name="uE826" unicode="&#xe826;" 
d="M-37 -637l385 150l-20 -90l-393 -152z" />
    <glyph glyph-name="uE827" unicode="&#xe827;" 
d="M-74 -714l385 150l-20 -92l-393 -150zM-34 -506l386 150l-21 -89l-395 -152z" />
    <glyph glyph-name="uE828" unicode="&#xe828;" 
d="M379 1026q-57 -87 -142 -87q-60 0 -85 53q-18 38 -18 66q0 34 22 90q25 64 53 64q20 0 20 -20q0 -8 -12 -49q-15 -32 -15 -54q0 -41 61 -41q56 10 76 43q17 40 35 81q27 61 48 61q18 0 18 -21l-4 -24l-10 -59q0 -38 38 -44q31 0 41 24q5 13 10 33q8 11 10 22l6 24
q15 56 30 59q23 0 23 -29q0 -21 -6 -54l-8 -29l-2 -12q-40 -144 -118 -144q-43 0 -71 47zM191 1380l386 150l-21 -91l-393 -150z" />
    <glyph glyph-name="uE829" unicode="&#xe829;" 
d="M393 1036q-57 -87 -142 -87q-60 0 -85 53q-18 39 -18 67q0 34 22 89q25 65 53 65q20 0 20 -21q0 -8 -12 -48q-14 -33 -14 -55q0 -41 61 -41q56 10 75 43q18 41 35 82q28 60 48 60q18 0 18 -20l-4 -25l-10 -59q0 -38 39 -44q31 0 40 24q5 14 10 33q8 11 10 21t6 25
q15 56 31 59q22 0 22 -28q0 -21 -6 -55l-8 -29l-2 -11q-40 -145 -118 -145q-42 0 -71 47zM531 1790q63 0 63 -85q0 -71 -58 -145q-53 -68 -122 -100q-81 -38 -209 -77q-13 -8 -37 -8q-22 0 -22 12q0 25 99 71q93 42 158 83q87 54 100 75q-65 16 -65 67q0 34 30 70.5t63 36.5
z" />
    <glyph glyph-name="uE82A" unicode="&#xe82a;" 
d="M393 1036q-57 -87 -142 -87q-60 0 -85 53q-18 39 -18 67q0 34 22 89q25 65 53 65q20 0 20 -21q0 -8 -12 -48q-14 -33 -14 -55q0 -41 61 -41q56 10 75 43q18 41 35 82q28 60 48 60q18 0 18 -20l-4 -25l-10 -59q0 -38 39 -44q31 0 40 24q5 14 10 33q8 11 10 21t6 25
q15 56 31 59q22 0 22 -28q0 -21 -6 -55l-8 -29l-2 -11q-40 -145 -118 -145q-42 0 -71 47zM164 1378l386 150l-21 -91l-393 -150zM205 1587l385 150l-20 -89l-395 -152z" />
    <glyph glyph-name="uE82B" unicode="&#xe82b;" 
d="M396 1012q-57 -87 -142 -87q-60 0 -85 53q-18 38 -18 66q0 34 22 90q25 64 53 64q20 0 20 -20q0 -8 -12 -49q-15 -32 -15 -54q0 -41 61 -41q56 10 76 43q17 40 35 81q27 61 48 61q18 0 18 -21l-4 -24l-10 -59q0 -38 38 -44q31 0 41 24q5 13 10 33q8 11 10 22l6 24
q15 56 30 59q23 0 23 -29q0 -21 -6 -54l-8 -29l-2 -12q-40 -144 -118 -144q-43 0 -71 47zM545 1736q63 0 63 -84q0 -66 -48 -132q-59 -79 -132 -115q-82 -41 -209 -79q-54 -16 -81 -16q-33 0 -33 16q0 11 30 30q20 12 40 25q42 31 48 36q49 40 49 69q0 24 -39 24
q-33 -3 -91 -18q0 51 51.5 86.5t88.5 35.5q75 0 75 -71q0 -39 -26 -103q12 0 90.5 48t95.5 73q-57 25 -57 97q0 78 85 78z" />
    <glyph glyph-name="uE82C" unicode="&#xe82c;" 
d="M411 1300q-57 -87 -142 -87q-60 0 -85 53q-18 38 -18 66q0 34 22 90q25 64 53 64q20 0 20 -20q0 -8 -12 -49q-14 -32 -14 -54q0 -41 61 -41q56 10 75 43q18 41 35 81q28 61 48 61q18 0 18 -21l-4 -24l-10 -59q0 -38 39 -44q31 0 40 24q5 13 10 33q8 11 10 22l6 24
q15 56 31 59q22 0 22 -29q0 -21 -6 -54l-8 -29l-2 -12q-40 -144 -118 -144q-42 0 -71 47zM176 1016l385 150l-20 -89l-395 -152z" />
    <glyph glyph-name="uE82D" unicode="&#xe82d;" 
d="M434 1482q-57 -87 -142 -87q-60 0 -85 53q-18 39 -18 67q0 34 21 89q26 65 54 65q20 0 20 -21q0 -8 -12 -48q-15 -33 -15 -55q0 -41 61 -41q56 11 75 43l36 82q27 60 48 60q18 0 18 -20l-5 -25l-9 -59q0 -38 38 -44q31 0 41 24q5 14 10 33q8 11 10 21t6 25q15 56 30 59
q23 0 23 -28q0 -21 -6 -55l-8 -29l-2 -11q-40 -144 -118 -144q-43 0 -71 46zM166 983l385 150l-20 -91l-393 -150zM207 1192l385 150l-21 -89l-395 -152z" />
    <glyph glyph-name="NULL" 
 />
  </font>
</defs>
</svg>
