<?xml version="1.0" standalone="no"?>
<!DOCTYPE svg PUBLIC "-//W3C//DTD SVG 1.1//EN" "http://www.w3.org/Graphics/SVG/1.1/DTD/svg11.dtd" >
<svg xmlns="http://www.w3.org/2000/svg" xmlns:xlink="http://www.w3.org/1999/xlink" version="1.1">
<metadata>
Created by FontForge 20161013 at Sat Jul 21 03:54:08 2012
 By ,,,
Copyright ?(c) 2003 Middle East Television Network. All rights reserved. AlHurra and AlHurra Font family, in all their forms, styl
</metadata>
<defs>
<font id="AlHurraTxtlight" horiz-adv-x="0" >
  <font-face 
    font-family="AlHurraTxtlight"
    font-weight="300"
    font-stretch="normal"
    units-per-em="2048"
    panose-1="0 0 4 0 0 0 0 0 0 0"
    ascent="1638"
    descent="-410"
    bbox="-185 -1384 2373 2187"
    underline-thickness="20"
    underline-position="-930"
    unicode-range="U+0020-FEFC"
  />
<missing-glyph horiz-adv-x="1024" 
d="M128 0v1254h768v-1254h-768zM256 128h512v998h-512v-998z" />
    <glyph glyph-name="uE818" unicode="&#x651;&#x64b;" 
d="M409 1458q-57 -87 -142 -87q-60 0 -85 53q-18 39 -18 67q0 34 22 89q25 65 53 65q20 0 20 -21q0 -8 -12 -48q-14 -33 -14 -55q0 -41 61 -41q56 10 75 43q18 41 35 82q28 60 48 60q18 0 18 -20l-4 -25l-10 -59q0 -38 39 -44q31 0 40 24q5 14 10 33q8 11 10 21t6 25
q15 56 31 59q22 0 22 -28q0 -21 -6 -55l-8 -29l-2 -11q-40 -145 -118 -145q-42 0 -71 47zM180 1800l386 150l-21 -91l-393 -150zM221 2009l385 150l-20 -89l-395 -152z" />
    <glyph glyph-name="uFC5E" unicode="&#x651;&#x64c;" arabic-form="isolated" 
d="M404 1401q-57 -87 -142 -87q-60 0 -85 53q-18 38 -18 66q0 34 22 90q25 64 53 64q20 0 20 -20q0 -8 -12 -49q-15 -32 -15 -54q0 -41 61 -41q56 10 76 43q17 40 35 81q27 61 48 61q18 0 18 -21l-4 -24l-10 -59q0 -38 38 -44q31 0 41 24q5 13 10 33q8 11 10 22l6 24
q15 56 30 59q23 0 23 -29q0 -21 -6 -54l-8 -29l-2 -12q-40 -144 -118 -144q-43 0 -71 47zM553 2125q63 0 63 -84q0 -66 -48 -132q-59 -79 -132 -115q-82 -41 -209 -79q-54 -16 -81 -16q-33 0 -33 16q0 11 30 30q20 12 40 25q42 31 48 36q49 40 49 69q0 24 -39 24
q-33 -3 -91 -18q0 51 51.5 86.5t88.5 35.5q75 0 75 -71q0 -39 -26 -103q12 0 90.5 48t95.5 73q-57 25 -57 97q0 78 85 78z" />
    <glyph glyph-name="uFC5F" unicode="&#x651;&#x64d;" arabic-form="isolated" 
d="M458 1920q-57 -87 -142 -87q-60 0 -85 53q-18 39 -18 67q0 34 21 89q26 65 54 65q20 0 20 -21q0 -8 -12 -48q-15 -33 -15 -55q0 -41 61 -41q56 11 75 43l36 82q27 60 48 60q18 0 18 -20l-5 -25l-9 -59q0 -38 38 -44q31 0 41 24q5 14 10 33q8 11 10 21t6 25q15 56 30 59
q23 0 23 -28q0 -21 -6 -55l-8 -29l-2 -11q-40 -144 -118 -144q-43 0 -71 46zM190 1421l385 150l-20 -91l-393 -150zM231 1630l385 150l-21 -89l-395 -152z" />
    <glyph glyph-name="uFC60" unicode="&#x651;&#x64e;" arabic-form="isolated" 
d="M395 1415q-57 -87 -142 -87q-60 0 -85 53q-18 38 -18 66q0 34 22 90q25 64 53 64q20 0 20 -20q0 -8 -12 -49q-15 -32 -15 -54q0 -41 61 -41q56 10 76 43q17 40 35 81q27 61 48 61q18 0 18 -21l-4 -24l-10 -59q0 -38 38 -44q31 0 41 24q5 13 10 33q8 11 10 22l6 24
q15 56 30 59q23 0 23 -29q0 -21 -6 -54l-8 -29l-2 -12q-40 -144 -118 -144q-43 0 -71 47zM207 1769l386 150l-21 -91l-393 -150z" />
    <glyph glyph-name="uFC61" unicode="&#x651;&#x64f;" arabic-form="isolated" 
d="M409 1433q-57 -87 -142 -87q-60 0 -85 53q-18 39 -18 67q0 34 22 89q25 65 53 65q20 0 20 -21q0 -8 -12 -48q-14 -33 -14 -55q0 -41 61 -41q56 10 75 43q18 41 35 82q28 60 48 60q18 0 18 -20l-4 -25l-10 -59q0 -38 39 -44q31 0 40 24q5 14 10 33q8 11 10 21t6 25
q15 56 31 59q22 0 22 -28q0 -21 -6 -55l-8 -29l-2 -11q-40 -145 -118 -145q-42 0 -71 47zM547 2187q63 0 63 -85q0 -71 -58 -145q-53 -68 -122 -100q-81 -38 -209 -77q-13 -8 -37 -8q-22 0 -22 12q0 25 99 71q93 42 158 83q87 54 100 75q-65 16 -65 67q0 34 30 70.5t63 36.5
z" />
    <glyph glyph-name="uFC62" unicode="&#x651;&#x650;" arabic-form="isolated" 
d="M403 1689q-57 -87 -142 -87q-60 0 -85 53q-18 38 -18 66q0 34 22 90q25 64 53 64q20 0 20 -20q0 -8 -12 -49q-14 -32 -14 -54q0 -41 61 -41q56 10 75 43q18 41 35 81q28 61 48 61q18 0 18 -21l-4 -24l-10 -59q0 -38 39 -44q31 0 40 24q5 13 10 33q8 11 10 22l6 24
q15 56 31 59q22 0 22 -29q0 -21 -6 -54l-8 -29l-2 -12q-40 -144 -118 -144q-42 0 -71 47zM168 1405l385 150l-20 -89l-395 -152z" />
    <glyph glyph-name="uFDF2" unicode="&#xfedf;&#xfee0;&#xfeea;" horiz-adv-x="1836" arabic-form="isolated" 
d="M738 0l-15 111l-106 -117q-26 9 -57 14t-63 8q-32 2 -62 3q-31 1 -57 1h-251l1 23q0 19 2 45q1 25 4 53q2 28 7 49q10 53 35 116q25 62 61 125t80 122q44 58 92 104q47 45 96 73q49 27 94 27q31 0 58 -27t51 -72q23 -46 43 -105t37 -123q16 -64 30 -128q14 -65 25 -121
h202v707l151 91v-798h290v973l151 91v-1245h-899zM531 209q39 0 73 -4q33 -4 64 -14q30 -10 65 -30q-18 76 -39 146q-21 69 -46 122q-26 53 -56 85q-31 31 -67 31q-35 0 -76 -22t-83 -65t-81 -105t-70 -143zM1407 1348q0 -248 -170 -248q-53 0 -102 54q-54 -89 -129 -87
q-55 2 -85 39q-30 36 -32 97q-1 29 0 53q1 23 5 43q4 19 11 37q6 18 16 37q-1 -1 1 3q1 3 2 3q1 -1 2 -10q0 -9 -2 -35q0 -157 94 -151q85 2 85 102v86l69 90v-143q0 -50 23 -73q22 -23 64 -19q78 9 78 104v100l70 92v-174zM1125 1539v370l37 23v-370z" />
    <glyph glyph-name="uFEF5" unicode="&#xfedf;&#xfe82;" horiz-adv-x="1060" arabic-form="isolated" 
d="M906 532q0 -63 -6 -133q-6 -71 -30 -140q-24 -70 -72 -134q-49 -64 -132 -113q-84 -50 -209 -79q-126 -30 -305 -32l-117 170l44 -2l38 1q84 0 157 8t140 23q2 18 3 37q1 18 1 36q0 116 -45 283q-45 166 -146 381l-107 239l150 126l25 -60l83 -237q32 -96 62 -205
q29 -111 43 -199t14 -157q0 -59 -15 -117q-16 -58 -45 -120q107 40 170 89q63 48 96 102t43 112q9 58 9 119v625l151 91v-714zM-35 1237q-88 -13 -126 -39q11 72 52 117q40 45 127 63l414 65q48 11 81 20q32 9 53 22q-7 -36 -16 -66t-28 -53q-19 -24 -51 -40t-84 -25z" />
    <glyph glyph-name="uFEF6" unicode="&#xfee0;&#xfe82;" horiz-adv-x="1047" arabic-form="final" 
d="M940 0q-21 0 -36 18q-16 17 -27 45q-11 27 -18 61t-11 66q-47 -61 -110 -113q-64 -53 -148 -91q-85 -39 -194 -62t-246 -24l-117 170l43 -2l39 1q161 0 297 32l4 38q1 19 1 39q0 117 -45 281q-46 164 -147 378l-107 239l152 126l35 -89l72 -208q31 -96 61 -205
q29 -110 43 -195q13 -86 13 -155q0 -61 -15 -120q-16 -60 -45 -121q106 40 169 88t97 102q34 53 45 111q10 58 10 119v625l151 91l-2 -735q0 -51 2 -108q2 -58 14 -107t39 -81q26 -33 75 -33h33v-181h-127zM-35 1237q-88 -13 -126 -39q11 72 52 117q40 45 127 63l414 65
q48 11 81 20q32 9 53 22q-7 -36 -16 -66t-28 -53q-19 -24 -51 -40t-84 -25z" />
    <glyph glyph-name="uFEF7" unicode="&#xfedf;&#xfe84;" horiz-adv-x="1062" arabic-form="isolated" 
d="M906 532q0 -63 -6 -133q-6 -71 -30 -140q-24 -70 -72 -134q-49 -64 -132 -113q-84 -50 -209 -79q-126 -30 -305 -32l-117 170l44 -2l38 1q84 0 157 8t140 23q2 18 3 37q1 18 1 36q0 116 -45 283q-45 166 -146 381l-107 239l150 126l25 -60l83 -237q32 -96 62 -205
q29 -111 43 -199t14 -157q0 -59 -15 -117q-16 -58 -45 -120q107 40 170 89q63 48 96 102t43 112q9 58 9 119v625l151 91v-714zM351 1309q-102 -29 -169 -63q-68 -35 -110 -66l-15 -10l-13 -11q9 41 35 84t61 77q-64 5 -91 34q-28 28 -28 64q0 47 21 95t56 87q34 38 78 62
t89 22q12 -1 25 -3t25 -7l-11 -107q-10 2 -20 3q-11 1 -21 1q-30 0 -60 -8q-30 -9 -55 -26q-26 -18 -45 -45q-20 -27 -29 -64q15 -26 34 -37t50 -14q38 -4 96 4t136 42z" />
    <glyph glyph-name="uFEF8" unicode="&#xfee0;&#xfe84;" horiz-adv-x="1053" arabic-form="final" 
d="M940 0q-21 0 -36 18q-16 17 -27 45q-11 27 -18 61t-11 66q-47 -61 -110 -113q-64 -53 -148 -91q-85 -39 -194 -62t-246 -24l-117 170l43 -2l39 1q161 0 297 32l4 38q1 19 1 39q0 117 -45 281q-46 164 -147 378l-107 239l152 126l35 -89l72 -208q31 -96 61 -205
q29 -110 43 -195q13 -86 13 -155q0 -61 -15 -120q-16 -60 -45 -121q106 40 169 88t97 102q34 53 45 111q10 58 10 119v625l151 91l-2 -735q0 -51 2 -108q2 -58 14 -107t39 -81q26 -33 75 -33h33v-181h-127zM367 1309q-102 -29 -169 -63q-68 -35 -110 -66l-15 -10l-13 -11
q9 41 35 84t61 77q-64 5 -91 34q-28 28 -28 64q0 47 21 95t56 87q34 38 78 62t89 22q12 -1 25 -3t25 -7l-11 -107q-10 2 -20 3q-11 1 -21 1q-30 0 -60 -8q-30 -9 -55 -26q-26 -18 -45 -45q-20 -27 -29 -64q15 -26 34 -37t50 -14q38 -4 96 4t136 42z" />
    <glyph glyph-name="uFEF9" unicode="&#xfedf;&#xfe88;" horiz-adv-x="1061" arabic-form="isolated" 
d="M906 532q0 -63 -6 -133q-6 -71 -30 -140q-24 -70 -72 -134q-49 -64 -132 -113q-84 -50 -209 -79q-126 -30 -305 -32l-117 170l44 -2l38 1q84 0 157 8t140 23q2 18 3 37q1 18 1 36q0 116 -45 283q-45 166 -146 381l-107 239l150 126l25 -60l83 -237q32 -96 62 -205
q29 -111 43 -199t14 -157q0 -59 -15 -117q-16 -58 -45 -120q107 40 170 89q63 48 96 102t43 112q9 58 9 119v625l151 91v-714zM617 -492q-102 -29 -169 -63q-68 -35 -110 -66l-15 -10l-13 -11q9 41 35 84t61 77q-64 5 -91 34q-28 28 -28 64q0 47 21 95t56 87q34 38 78 62
t89 22q12 -1 25 -3t25 -7l-11 -107q-10 2 -20 3q-11 1 -21 1q-30 0 -60 -8q-30 -9 -55 -26q-26 -18 -45 -45q-20 -27 -29 -64q15 -26 34 -37t50 -14q38 -4 96 4t136 42z" />
    <glyph glyph-name="uFEFA" unicode="&#xfee0;&#xfe88;" horiz-adv-x="1047" arabic-form="final" 
d="M940 0q-21 0 -36 18q-16 17 -27 45q-11 27 -18 61t-11 66q-47 -61 -110 -113q-64 -53 -148 -91q-85 -39 -194 -62t-246 -24l-117 170l43 -2l39 1q161 0 297 32l4 38q1 19 1 39q0 117 -45 281q-46 164 -147 378l-107 239l152 126l35 -89l72 -208q31 -96 61 -205
q29 -110 43 -195q13 -86 13 -155q0 -61 -15 -120q-16 -60 -45 -121q106 40 169 88t97 102q34 53 45 111q10 58 10 119v625l151 91l-2 -735q0 -51 2 -108q2 -58 14 -107t39 -81q26 -33 75 -33h33v-181h-127zM605 -500q-102 -29 -169 -63q-68 -35 -110 -66l-15 -10l-13 -11
q9 41 35 84t61 77q-64 5 -91 34q-28 28 -28 64q0 47 21 95t56 87q34 38 78 62t89 22q12 -1 25 -3t25 -7l-11 -107q-10 2 -20 3q-11 1 -21 1q-30 0 -60 -8q-30 -9 -55 -26q-26 -18 -45 -45q-20 -27 -29 -64q15 -26 34 -37t50 -14q38 -4 96 4t136 42z" />
    <glyph glyph-name="uFEFB" unicode="&#xfedf;&#xfe8e;" horiz-adv-x="997" arabic-form="isolated" 
d="M906 532q0 -63 -6 -133q-6 -71 -30 -140q-24 -70 -72 -134q-49 -64 -132 -113q-84 -50 -209 -79q-126 -30 -305 -32l-117 170l44 -2l38 1q84 0 157 8t140 23q2 18 3 37q1 18 1 36q0 116 -45 283q-45 166 -146 381l-107 239l150 126l25 -60l83 -237q32 -96 62 -205
q29 -111 43 -199t14 -157q0 -59 -15 -117q-16 -58 -45 -120q107 40 170 89q63 48 96 102t43 112q9 58 9 119v625l151 91v-714z" />
    <glyph glyph-name="uFEFC" unicode="&#xfee0;&#xfe8e;" horiz-adv-x="1047" arabic-form="final" 
d="M940 0q-21 0 -36 18q-16 17 -27 45q-11 27 -18 61t-11 66q-47 -61 -110 -113q-64 -53 -148 -91q-85 -39 -194 -62t-246 -24l-117 170l43 -2l39 1q161 0 297 32l4 38q1 19 1 39q0 117 -45 281q-46 164 -147 378l-107 239l152 126l35 -89l72 -208q31 -96 61 -205
q29 -110 43 -195q13 -86 13 -155q0 -61 -15 -120q-16 -60 -45 -121q106 40 169 88t97 102q34 53 45 111q10 58 10 119v625l151 91l-2 -735q0 -51 2 -108q2 -58 14 -107t39 -81q26 -33 75 -33h33v-181h-127z" />
    <glyph glyph-name="u0622" unicode="&#x622;" horiz-adv-x="425" arabic-form="isolated" 
d="M-35 1237q-88 -13 -126 -39q11 72 52 117q40 45 127 63l414 65q48 11 81 20q32 9 53 22q-7 -36 -16 -66t-28 -53q-19 -24 -51 -40t-84 -25zM145 2v1147l79 48l74 47v-1147z" />
    <glyph glyph-name="u0623" unicode="&#x623;" horiz-adv-x="456" arabic-form="isolated" 
d="M145 2v1147l79 48l74 47v-1147zM373 1332q-102 -29 -169 -63q-68 -35 -110 -66l-15 -10l-13 -11q9 41 35 84t61 77q-64 5 -91 34q-28 28 -28 64q0 47 21 95t56 87q34 38 78 62t89 22q12 -1 25 -3t25 -7l-11 -107q-10 2 -20 3q-11 1 -21 1q-30 0 -60 -8q-30 -9 -55 -26
q-26 -18 -45 -45q-20 -27 -29 -64q15 -26 34 -37t50 -14q38 -4 96 4t136 42z" />
    <glyph glyph-name="u0624" unicode="&#x624;" horiz-adv-x="733" arabic-form="isolated" 
d="M642 -39q-7 -59 -18 -110t-25 -93q-15 -42 -29 -74q-34 -77 -84 -153q-50 -77 -118 -162l-186 155q74 50 131 108q57 57 99 118t71 124t47 126q-95 -1 -178 3q-84 4 -148 19q-64 14 -104 43q-41 28 -48 76q-9 50 -4 115q5 64 21 132q16 67 43 132q27 64 63 115
q35 50 78 81q42 31 89 31q61 0 116 -49q54 -50 95 -138t66 -209q25 -122 29 -266q1 -66 -6 -124zM536 181q-9 79 -28 147q-20 68 -48 119q-28 50 -63 79q-36 28 -76 28q-27 0 -50 -14q-24 -14 -43 -36q-20 -23 -35 -51q-16 -29 -27 -58t-16 -55q-6 -27 -6 -46q0 -29 27 -50
q26 -21 70 -35t102 -21q57 -7 120 -7h73zM374 844q-102 -29 -169 -63q-68 -35 -110 -66l-15 -10l-13 -11q9 41 35 84t61 77q-64 5 -91 34q-28 28 -28 64q0 47 21 95t56 87q34 38 78 62t89 22q12 -1 25 -3t25 -7l-11 -107q-10 2 -20 3q-11 1 -21 1q-30 0 -60 -8
q-30 -9 -55 -26q-26 -18 -45 -45q-20 -27 -29 -64q15 -26 34 -37t50 -14q38 -4 96 4t136 42z" />
    <glyph glyph-name="u0625" unicode="&#x625;" horiz-adv-x="473" arabic-form="isolated" 
d="M145 2v1147l79 48l74 47v-1147zM386 -380q-102 -29 -169 -63q-68 -35 -110 -66l-15 -10l-13 -11q9 41 35 84t61 77q-64 5 -91 34q-28 28 -28 64q0 47 21 95t56 87q34 38 78 62t89 22q12 -1 25 -3t25 -7l-11 -107q-10 2 -20 3q-11 1 -21 1q-30 0 -60 -8q-30 -9 -55 -26
q-26 -18 -45 -45q-20 -27 -29 -64q15 -26 34 -37t50 -14q38 -4 96 4t136 42z" />
    <glyph glyph-name="u0626" unicode="&#x626;" horiz-adv-x="1320" arabic-form="isolated" 
d="M324 526q-63 -90 -91 -177q-29 -87 -29 -165q0 -90 33 -167q33 -78 91 -135t136 -89q77 -32 167 -32q69 0 138 22q68 22 131 60q62 37 116 86q53 49 92 102q-8 29 -34 54t-64 47q-38 21 -83 39q-46 17 -92 32q-47 14 -92 26l-80 19q-33 11 -41 37t-8 55q3 50 22 103
q18 52 47 102q28 50 66 95q38 44 82 77q43 33 90 53q46 19 93 19q14 0 34 -4q20 -5 39 -24q18 -20 31 -59t13 -108v-9q-21 16 -46 24q-26 7 -61 7q-46 0 -93 -15q-48 -15 -89 -42q-42 -27 -74 -65q-33 -38 -49 -84q46 -10 101 -26t111 -37q56 -22 109 -49t94 -59t66 -68
q24 -37 24 -79q0 -38 -20 -93t-57 -116q-38 -61 -92 -121q-55 -61 -124 -109t-151 -78q-83 -30 -176 -30q-94 0 -169 24q-76 24 -134 64t-99 92q-42 52 -69 108t-39 113q-13 57 -13 106q0 85 16 160q15 75 42 141q26 65 60 122q34 56 72 103zM398 699q-102 -29 -169 -63
q-68 -35 -110 -66l-15 -10l-13 -11q9 41 35 84t61 77q-64 5 -91 34q-28 28 -28 64q0 47 21 95t56 87q34 38 78 62t89 22q12 -1 25 -3t25 -7l-11 -107q-10 2 -20 3q-11 1 -21 1q-30 0 -60 -8q-30 -9 -55 -26q-26 -18 -45 -45q-20 -27 -29 -64q15 -26 34 -37t50 -14
q38 -4 96 4t136 42z" />
    <glyph glyph-name="u0627" unicode="&#x627;" horiz-adv-x="409" arabic-form="isolated" 
d="M145 2v1147l79 48l74 47v-1147z" />
    <glyph glyph-name="u0628" unicode="&#x628;" horiz-adv-x="1617" arabic-form="isolated" 
d="M1448 181q-15 50 -31 92q-17 41 -35 79t-38 74l-73 125l132 152q67 -144 99 -273q31 -130 31 -235q0 -57 -4 -107q-5 -50 -11 -88h-1192q-137 0 -213 65q-77 64 -77 189q0 60 14 117t40 110q25 52 60 100q35 47 77 88l44 -43q-25 -30 -47 -65q-23 -35 -40 -71
q-18 -37 -28 -74q-11 -37 -11 -70q0 -35 12 -65t39 -52q26 -23 69 -35q42 -13 104 -13h1079zM660 -227l138 137l138 -138l-138 -138z" />
    <glyph glyph-name="u0629" unicode="&#x629;" horiz-adv-x="827" arabic-form="isolated" 
d="M70 238q7 35 23 78q16 42 43 93q26 50 66 110q75 113 135 192l102 129q45 -32 99 -75q53 -43 99 -96q46 -54 77 -118t31 -138q0 -46 -13 -96q-14 -50 -39 -97q-25 -48 -61 -91q-37 -44 -82 -76q-46 -33 -100 -52q-55 -19 -116 -19q-62 0 -112 7q-50 6 -85 27
q-35 20 -54 58q-20 38 -20 100q0 29 7 64zM642 330q-18 46 -48 88q-31 42 -68 80q-38 38 -80 73l-81 64l-65 -81q-34 -44 -62 -87q-29 -44 -48 -85q-19 -42 -19 -75q0 -27 14 -51q22 -34 71 -52q48 -19 108 -19q53 0 106 16q53 15 98 48q43 32 74 81zM250 873l-139 139
l139 140l140 -140zM393 1012l140 140l137 -140l-137 -139z" />
    <glyph glyph-name="u062A" unicode="&#x62a;" horiz-adv-x="1625" arabic-form="isolated" 
d="M1448 181q-15 50 -31 92q-17 41 -35 79t-38 74l-73 125l132 152q67 -144 99 -273q31 -130 31 -235q0 -57 -4 -107q-5 -50 -11 -88h-1192q-137 0 -213 65q-77 64 -77 189q0 60 14 117t40 110q25 52 60 100q35 47 77 88l44 -43q-25 -30 -47 -65q-23 -35 -40 -71
q-18 -37 -28 -74q-11 -37 -11 -70q0 -35 12 -65t39 -52q26 -23 69 -35q42 -13 104 -13h1079zM520 905l138 137l138 -138l-138 -138zM797 905l138 137l138 -138l-138 -138z" />
    <glyph glyph-name="u062B" unicode="&#x62b;" horiz-adv-x="1602" arabic-form="isolated" 
d="M1448 181q-15 50 -31 92q-17 41 -35 79t-38 74l-73 125l132 152q67 -144 99 -273q31 -130 31 -235q0 -57 -4 -107q-5 -50 -11 -88h-1192q-137 0 -213 65q-77 64 -77 189q0 60 14 117t40 110q25 52 60 100q35 47 77 88l44 -43q-25 -30 -47 -65q-23 -35 -40 -71
q-18 -37 -28 -74q-11 -37 -11 -70q0 -35 12 -65t39 -52q26 -23 69 -35q42 -13 104 -13h1079zM520 905l138 137l138 -138l-138 -138zM797 905l138 137l138 -138l-138 -138zM656 1127l138 137l138 -138l-138 -138z" />
    <glyph glyph-name="u062C" unicode="&#x62c;" horiz-adv-x="1070" arabic-form="isolated" 
d="M601 -215l-140 139l140 139l139 -139zM894 -672q-38 -12 -84 -20q-47 -9 -93 -15q-47 -6 -89 -9q-43 -4 -72 -5q-93 -2 -166 17q-74 19 -130 53t-96 81q-41 47 -67 101t-40 113q-14 58 -17 116q1 73 26 160t81 180q55 93 145 188q89 95 220 184l-143 35l-57 12l-43 6
q-33 3 -66 3q-62 0 -104 -13q-42 -14 -71 -41l-7 -7q-4 -3 -9 -9l-6 5l68 112q22 36 45 61q22 25 47 40q24 15 52 22q27 6 60 6q22 0 56 -4q33 -4 74 -11l292 -62q55 -12 107 -19t98 -7q46 -1 79 9l-38 -93q-6 -15 -13 -35q-10 -29 -40 -46q-31 -17 -70 -17q-42 0 -101 10
q-59 9 -128 23l-94 -86q-48 -46 -92 -97q-45 -51 -84 -105q-40 -55 -69 -110t-46 -110q-17 -56 -17 -109q0 -47 14 -92q14 -46 43 -88q30 -43 73 -72q42 -30 93 -48q50 -19 105 -27q55 -9 111 -9q50 0 98 5t92 13q43 8 80 18q37 9 64 18z" />
    <glyph glyph-name="u062D" unicode="&#x62d;" horiz-adv-x="1070" arabic-form="isolated" 
d="M894 -672q-38 -12 -84 -20q-47 -9 -93 -15q-47 -6 -89 -9q-43 -4 -72 -5q-93 -2 -166 17q-74 19 -130 53t-96 81q-41 47 -67 101t-40 113q-14 58 -17 116q1 73 26 160t81 180q55 93 145 188q89 95 220 184l-143 35l-57 12l-43 6q-33 3 -66 3q-62 0 -104 -13
q-42 -14 -71 -41l-7 -7q-4 -3 -9 -9l-6 5l68 112q22 36 45 61q22 25 47 40q24 15 52 22q27 6 60 6q22 0 56 -4q33 -4 74 -11l292 -62q55 -12 107 -19t98 -7q46 -1 79 9l-38 -93q-6 -15 -13 -35q-10 -29 -40 -46q-31 -17 -70 -17q-42 0 -101 10q-59 9 -128 23l-94 -86
q-48 -46 -92 -97q-45 -51 -84 -105q-40 -55 -69 -110t-46 -110q-17 -56 -17 -109q0 -47 14 -92q14 -46 43 -88q30 -43 73 -72q42 -30 93 -48q50 -19 105 -27q55 -9 111 -9q50 0 98 5t92 13q43 8 80 18q37 9 64 18z" />
    <glyph glyph-name="u062E" unicode="&#x62e;" horiz-adv-x="1111" arabic-form="isolated" 
d="M601 768l-140 139l140 139l139 -139zM894 -672q-38 -12 -84 -20q-47 -9 -93 -15q-47 -6 -89 -9q-43 -4 -72 -5q-93 -2 -166 17q-74 19 -130 53t-96 81q-41 47 -67 101t-40 113q-14 58 -17 116q1 73 26 160t81 180q55 93 145 188q89 95 220 184l-143 35l-57 12l-43 6
q-33 3 -66 3q-62 0 -104 -13q-42 -14 -71 -41l-7 -7q-4 -3 -9 -9l-6 5l68 112q22 36 45 61q22 25 47 40q24 15 52 22q27 6 60 6q22 0 56 -4q33 -4 74 -11l292 -62q55 -12 107 -19t98 -7q46 -1 79 9l-38 -93q-6 -15 -13 -35q-10 -29 -40 -46q-31 -17 -70 -17q-42 0 -101 10
q-59 9 -128 23l-94 -86q-48 -46 -92 -97q-45 -51 -84 -105q-40 -55 -69 -110t-46 -110q-17 -56 -17 -109q0 -47 14 -92q14 -46 43 -88q30 -43 73 -72q42 -30 93 -48q50 -19 105 -27q55 -9 111 -9q50 0 98 5t92 13q43 8 80 18q37 9 64 18z" />
    <glyph glyph-name="u062F" unicode="&#x62f;" horiz-adv-x="869" arabic-form="isolated" 
d="M682 181q-6 80 -38 142q-32 61 -71 105q-40 44 -78 72l-87 62l105 178q54 -45 103 -96q49 -52 86 -118q37 -67 59 -155t22 -207q0 -38 -3 -79t-10 -85h-569q-38 0 -64 10q-26 9 -42 26q-17 17 -24 40q-8 22 -8 49q0 23 4 46t12 47q14 -17 40 -27q25 -10 66 -10h497z" />
    <glyph glyph-name="u0630" unicode="&#x630;" horiz-adv-x="869" arabic-form="isolated" 
d="M682 181q-6 80 -38 142q-32 61 -71 105q-40 44 -78 72l-87 62l105 178q54 -45 103 -96q49 -52 86 -118q37 -67 59 -155t22 -207q0 -38 -3 -79t-10 -85h-569q-38 0 -64 10q-26 9 -42 26q-17 17 -24 40q-8 22 -8 49q0 23 4 46t12 47q14 -17 40 -27q25 -10 66 -10h497z
M283 764l-139 140l139 139l140 -139z" />
    <glyph glyph-name="u0631" unicode="&#x631;" horiz-adv-x="577" arabic-form="isolated" 
d="M24 -473q91 63 155 134t108 147q43 76 69 157q25 80 40 162q-13 63 -30 117q-18 54 -40 104q-23 50 -51 100q-28 49 -62 103l125 165q72 -152 112 -306t42 -307q0 -78 -12 -163q-13 -86 -45 -177q-32 -92 -87 -190t-140 -201z" />
    <glyph glyph-name="u0632" unicode="&#x632;" horiz-adv-x="643" arabic-form="isolated" 
d="M24 -473q91 63 155 134t108 147q43 76 69 157q25 80 40 162q-13 63 -30 117q-18 54 -40 104q-23 50 -51 100q-28 49 -62 103l125 165q72 -152 112 -306t42 -307q0 -78 -12 -163q-13 -86 -45 -177q-32 -92 -87 -190t-140 -201zM177 769l-139 140l139 139l140 -139z" />
    <glyph glyph-name="u0633" unicode="&#x633;" horiz-adv-x="1880" arabic-form="isolated" 
d="M1143 0q-8 -56 -33 -121t-65 -129q-41 -65 -96 -124q-56 -60 -124 -105q-68 -46 -148 -73q-80 -28 -170 -28q-116 0 -200 47q-85 46 -141 122q-56 75 -83 172t-27 199q0 61 10 121q9 59 27 114t46 104q27 49 63 88q15 -17 21 -25l17 -21q-47 -73 -68 -144
q-21 -72 -21 -138q0 -86 32 -160q31 -75 86 -130q54 -55 128 -86q74 -32 159 -32q61 0 122 18q60 18 115 49t103 72q48 40 84 85q36 44 57 90t23 88q-12 53 -29 100q-18 47 -40 92q-22 44 -48 89l-57 94l110 148q101 -187 140 -395h230q-9 49 -21 92q-13 43 -28 83
q-16 40 -36 80q-21 40 -47 84l114 147q59 -128 89 -253q30 -126 35 -233h239q-11 53 -21 97q-11 43 -24 84q-13 40 -31 79t-43 83l-16 28l114 149q66 -142 96 -272t30 -234l1 -195h-674z" />
    <glyph glyph-name="u0634" unicode="&#x634;" horiz-adv-x="1898" arabic-form="isolated" 
d="M1143 0q-8 -56 -33 -121t-65 -129q-41 -65 -96 -124q-56 -60 -124 -105q-68 -46 -148 -73q-80 -28 -170 -28q-116 0 -200 47q-85 46 -141 122q-56 75 -83 172t-27 199q0 61 10 121q9 59 27 114t46 104q27 49 63 88q15 -17 21 -25l17 -21q-47 -73 -68 -144
q-21 -72 -21 -138q0 -86 32 -160q31 -75 86 -130q54 -55 128 -86q74 -32 159 -32q61 0 122 18q60 18 115 49t103 72q48 40 84 85q36 44 57 90t23 88q-12 53 -29 100q-18 47 -40 92q-22 44 -48 89l-57 94l110 148q101 -187 140 -395h230q-9 49 -21 92q-13 43 -28 83
q-16 40 -36 80q-21 40 -47 84l114 147q59 -128 89 -253q30 -126 35 -233h239q-11 53 -21 97q-11 43 -24 84q-13 40 -31 79t-43 83l-16 28l114 149q66 -142 96 -272t30 -234l1 -195h-674zM1173 766l-139 140l139 139l140 -139zM1319 906l140 139l139 -139l-139 -140z
M1168 1145l140 137l137 -137l-137 -139z" />
    <glyph glyph-name="u0635" unicode="&#x635;" horiz-adv-x="2380" arabic-form="isolated" 
d="M2164 181q0 104 -27 172q-28 67 -70 107q-42 39 -91 55q-49 15 -92 15q-35 0 -66 -6q-32 -6 -66 -21t-74 -40q-40 -26 -90 -65l-114 -92l-146 -125h836zM1151 0q-8 -56 -33 -121t-65 -129q-41 -65 -96 -124q-56 -60 -124 -105q-68 -46 -148 -73q-80 -28 -170 -28
q-116 0 -200 47q-85 46 -141 122q-56 75 -83 172t-27 199q0 61 10 121q9 59 27 114t46 104q27 49 63 88q15 -17 21 -25l17 -21q-47 -73 -68 -144q-21 -72 -21 -138q0 -86 32 -160q31 -75 86 -130q54 -55 128 -86q74 -32 159 -32q61 0 122 18t117 49t105 72q48 40 85 85
q36 44 58 90t24 88q-13 53 -31 99t-40 90q-23 43 -50 87l-62 99l110 148q101 -187 140 -395h46l89 92l100 98l107 99q54 49 108 93q54 43 106 79t99 59q32 15 69 24q36 8 71 8t70 -8q34 -9 66 -26l-1 1q33 -19 67 -52t62 -83q27 -51 45 -121q18 -71 18 -165q0 -60 -8 -130
q-9 -70 -28 -149h-1077z" />
    <glyph glyph-name="u0636" unicode="&#x636;" horiz-adv-x="2359" arabic-form="isolated" 
d="M2164 181q0 104 -27 172q-28 67 -70 107q-42 39 -91 55q-49 15 -92 15q-35 0 -66 -6q-32 -6 -66 -21t-74 -40q-40 -26 -90 -65l-114 -92l-146 -125h836zM1735 803l-140 139l140 140l139 -140zM1151 0q-8 -56 -33 -121t-65 -129q-41 -65 -96 -124q-56 -60 -124 -105
q-68 -46 -148 -73q-80 -28 -170 -28q-116 0 -200 47q-85 46 -141 122q-56 75 -83 172t-27 199q0 61 10 121q9 59 27 114t46 104q27 49 63 88q15 -17 21 -25l17 -21q-47 -73 -68 -144q-21 -72 -21 -138q0 -86 32 -160q31 -75 86 -130q54 -55 128 -86q74 -32 159 -32
q61 0 122 18t117 49t105 72q48 40 85 85q36 44 58 90t24 88q-13 53 -31 99t-40 90q-23 43 -50 87l-62 99l110 148q101 -187 140 -395h46l89 92l100 98l107 99q54 49 108 93q54 43 106 79t99 59q32 15 69 24q36 8 71 8t70 -8q34 -9 66 -26l-1 1q33 -19 67 -52t62 -83
q27 -51 45 -121q18 -71 18 -165q0 -60 -8 -130q-9 -70 -28 -149h-1077z" />
    <glyph glyph-name="u0637" unicode="&#x637;" horiz-adv-x="1342" arabic-form="isolated" 
d="M1163 181q0 103 -25 171t-63 109q-38 40 -85 56t-90 16q-51 0 -104 -15t-121 -54t-157 -107q-90 -69 -214 -176h859zM165 181q17 20 34 38l35 36l81 77v826l144 89v-801l107 90q61 50 128 93t136 73q68 29 129 29q58 0 104 -20t82 -54t62 -79q25 -45 42 -94
q16 -50 24 -102q7 -52 7 -99q0 -9 -2 -42l-7 -76q-5 -43 -12 -88q-8 -45 -17 -77h-1168l-36 181h127z" />
    <glyph glyph-name="u0638" unicode="&#x638;" horiz-adv-x="1358" arabic-form="isolated" 
d="M706 958l139 140l137 -140l-137 -139zM1163 181q0 103 -25 171t-63 109q-38 40 -85 56t-90 16q-51 0 -104 -15t-121 -54t-157 -107q-90 -69 -214 -176h859zM165 181q17 20 34 38l35 36l81 77v826l144 89v-801l107 90q61 50 128 93t136 73q68 29 129 29q58 0 104 -20
t82 -54t62 -79q25 -45 42 -94q16 -50 24 -102q7 -52 7 -99q0 -9 -2 -42l-7 -76q-5 -43 -12 -88q-8 -45 -17 -77h-1168l-36 181h127z" />
    <glyph glyph-name="u0639" unicode="&#x639;" horiz-adv-x="958" arabic-form="isolated" 
d="M895 -653q-37 -14 -81 -24t-88 -17q-44 -8 -84 -12t-69 -5q-129 -3 -227 26q-98 28 -164 82t-99 131q-34 76 -34 169q0 63 17 129q16 66 50 131q33 65 84 127q50 62 118 118q-32 17 -61 47q-30 30 -53 67q-24 37 -38 79q-15 41 -17 80q-5 73 24 140q28 66 79 117t120 82
q68 30 143 30q42 0 88 -12q45 -13 89 -37l23 -80q-69 22 -130 22q-68 0 -118 -22q-50 -23 -83 -58q-33 -36 -49 -78q-17 -43 -17 -82q2 -65 42 -118t124 -77q73 35 155 60q81 25 172 39l-24 -126q-137 -22 -240 -77q-104 -55 -173 -128q-70 -73 -105 -156q-36 -83 -36 -162
q0 -127 92 -193q91 -66 279 -64q31 0 74 6q42 5 90 15q48 9 98 22q50 12 96 26z" />
    <glyph glyph-name="u063A" unicode="&#x63a;" horiz-adv-x="937" arabic-form="isolated" 
d="M490 924l-138 139l138 140l139 -140zM895 -653q-37 -14 -81 -24t-88 -17q-44 -8 -84 -12t-69 -5q-129 -3 -227 26q-98 28 -164 82t-99 131q-34 76 -34 169q0 63 17 129q16 66 50 131q33 65 84 127q50 62 118 118q-32 17 -61 47q-30 30 -53 67q-24 37 -38 79
q-15 41 -17 80q-5 73 24 140q28 66 79 117t120 82q68 30 143 30q42 0 88 -12q45 -13 89 -37l23 -80q-69 22 -130 22q-68 0 -118 -22q-50 -23 -83 -58q-33 -36 -49 -78q-17 -43 -17 -82q2 -65 42 -118t124 -77q73 35 155 60q81 25 172 39l-24 -126q-137 -22 -240 -77
q-104 -55 -173 -128q-70 -73 -105 -156q-36 -83 -36 -162q0 -127 92 -193q91 -66 279 -64q31 0 74 6q42 5 90 15q48 9 98 22q50 12 96 26z" />
    <glyph glyph-name="u0641" unicode="&#x641;" horiz-adv-x="1842" arabic-form="isolated" 
d="M1414 443q67 4 175 27q-23 62 -48 112t-52 85q-28 35 -58 54t-63 19q-34 0 -63 -18t-52 -45t-40 -59q-17 -33 -27 -61q-11 -28 -15 -48q-4 -21 0 -25q23 -20 66 -32q42 -12 112 -12q31 0 66 3h-1zM1247 1124l140 140l137 -140l-137 -139zM66 452q20 74 54 138
q33 64 76 117q43 52 88 89l42 -40q-32 -35 -59 -80q-28 -45 -48 -93q-21 -49 -33 -99t-12 -95q0 -44 12 -81q11 -38 38 -66q26 -29 68 -45t102 -16h1259q-6 33 -8 52l-9 56l-6 28q-114 -26 -194 -36q-81 -11 -136 -11q-73 0 -117 13q-44 12 -67 30q-24 17 -31 35
q-8 17 -8 28l-1 32q0 118 29 211q29 92 74 158q44 65 96 102q52 36 98 43q7 1 15 1h12q53 0 99 -26q45 -27 83 -74q37 -48 67 -115q29 -67 51 -147q22 -81 36 -173q13 -93 18 -191l7 -100l4 -97h-1433q-45 0 -95 15q-51 15 -93 50q-43 34 -71 91q-28 56 -28 139q0 82 21 157
z" />
    <glyph glyph-name="u0642" unicode="&#x642;" horiz-adv-x="1259" arabic-form="isolated" 
d="M555 944l139 139l139 -139l-139 -140zM840 944l139 138l139 -138l-139 -140zM966 187q52 -4 107 -6q-12 91 -36 159q-25 68 -56 114q-31 45 -64 69q-34 24 -62 29h2q-33 7 -61 -5q-29 -12 -52 -35q-24 -23 -43 -53t-32 -58q-13 -29 -20 -52q-7 -24 -7 -34t1 -20
q0 -10 6 -20q5 -10 19 -20q13 -10 39 -19q26 -10 67 -20t102 -19q37 -6 90 -10zM1166 -43q-12 -61 -37 -128q-26 -67 -65 -131q-40 -65 -93 -124t-120 -103q-67 -45 -148 -71q-81 -27 -177 -27q-116 0 -200 46q-85 46 -140 122q-56 75 -83 172t-27 198q0 61 9 121
q9 59 27 114t46 104q27 49 63 88l37 -42q-47 -74 -68 -146q-21 -73 -21 -138q-1 -86 26 -163q27 -78 79 -136q52 -59 128 -94t173 -35q86 -1 165 34q78 34 143 92q64 58 112 134q47 75 70 156q-106 4 -185 14q-79 9 -135 23q-57 13 -93 30q-37 17 -58 36q-22 19 -30 39
t-8 40q0 124 29 227t73 176t96 114q52 40 98 40q67 0 125 -45q57 -45 100 -121q42 -77 68 -178q25 -102 30 -214l2 -64v-51q-1 -25 -4 -50z" />
    <glyph glyph-name="u0643" unicode="&#x643;" horiz-adv-x="1726" arabic-form="isolated" 
d="M75 446q18 69 49 128q30 58 70 107q40 48 84 85l5 -23q-28 -31 -51 -70q-24 -39 -40 -81q-17 -42 -26 -86q-10 -44 -10 -85q0 -49 14 -92q13 -44 43 -77t77 -52t114 -19h1078v973l151 91v-1245h-1291q-46 0 -96 15q-51 15 -93 50t-69 92t-27 140q0 79 18 149zM1030 749
q-102 -29 -169 -63q-68 -35 -110 -66l-15 -10l-13 -11q9 41 33 78q23 37 58 71q-60 10 -85 37q-25 26 -25 62q0 42 20 90q20 47 53 87q32 39 75 65q42 25 87 23q12 -1 25 -3t25 -7l-11 -107q-10 2 -20 3q-11 1 -21 1q-61 0 -117 -39q-57 -40 -95 -112q23 -17 50 -28
q26 -12 57 -15q38 -4 96 4t136 42z" />
    <glyph glyph-name="u0644" unicode="&#x644;" horiz-adv-x="1237" arabic-form="isolated" 
d="M1122 -21q0 -119 -40 -220q-41 -101 -112 -175q-72 -74 -170 -116q-99 -42 -216 -42q-116 0 -214 42q-99 42 -170 116t-111 175t-40 220q0 118 39 221q39 102 108 177l44 -51q-38 -57 -59 -124q-22 -68 -22 -141q0 -92 31 -173t85 -141t127 -95t158 -35q96 0 172 31
t129 89q52 57 80 140q28 82 28 184v1091l79 48l74 47v-1268z" />
    <glyph glyph-name="u0645" unicode="&#x645;" horiz-adv-x="1050" arabic-form="isolated" 
d="M65 -784v705q0 71 20 121q20 49 50 80q29 31 63 45t62 14h121q5 54 16 110t28 109t40 100q22 47 50 82t62 56q34 20 73 20q55 0 100 -28t81 -73t63 -103q26 -58 44 -117q17 -60 26 -116q8 -57 8 -100q0 -63 -16 -118q-17 -56 -36 -95l-16 -30q-8 -15 -16 -28
q-45 45 -92 74q-48 29 -98 46q-51 17 -105 24q-54 6 -111 6h-195q-38 0 -54 -22q-17 -22 -17 -57v-610zM514 181q44 0 88 -6t89 -21q45 -16 92 -43t97 -68q4 108 -18 187q-22 78 -56 128t-74 73q-41 23 -74 20q-30 -4 -56 -19q-26 -16 -50 -48q-25 -32 -49 -81
q-24 -50 -49 -122h60z" />
    <glyph glyph-name="u0646" unicode="&#x646;" horiz-adv-x="1217" arabic-form="isolated" 
d="M959 666q78 -133 124 -266q46 -134 54 -269q4 -52 -8 -117q-13 -65 -41 -132q-29 -68 -75 -132t-108 -114q-63 -50 -143 -80q-81 -31 -179 -31q-120 0 -219 39q-99 38 -170 107q-72 68 -111 161t-39 201q0 60 11 118q11 57 30 110q19 52 45 99q25 47 53 87l48 -37
q-48 -74 -70 -145q-23 -71 -23 -136q0 -87 34 -162t92 -129q58 -55 136 -86q78 -32 165 -32q83 0 164 33q80 32 146 83q66 50 113 112q46 61 62 120q-29 118 -86 228q-57 109 -119 206zM415 822l139 139l137 -139l-137 -137z" />
    <glyph glyph-name="u0647" unicode="&#x647;" horiz-adv-x="815" arabic-form="isolated" 
d="M70 238q7 35 23 78q16 42 43 93q26 50 66 110q75 113 135 192l102 129q45 -32 99 -75q53 -43 99 -96q46 -54 77 -118t31 -138q0 -46 -13 -96q-14 -50 -39 -97q-25 -48 -61 -91q-37 -44 -82 -76q-46 -33 -100 -52q-55 -19 -116 -19q-62 0 -112 7q-50 6 -85 27
q-35 20 -54 58q-20 38 -20 100q0 29 7 64zM642 330q-18 46 -48 88q-31 42 -68 80q-38 38 -80 73l-81 64l-65 -81q-34 -44 -62 -87q-29 -44 -48 -85q-19 -42 -19 -75q0 -27 14 -51q22 -34 71 -52q48 -19 108 -19q53 0 106 16q53 15 98 48q43 32 74 81z" />
    <glyph glyph-name="u0648" unicode="&#x648;" horiz-adv-x="706" arabic-form="isolated" 
d="M644 -39q-7 -59 -18 -110t-25 -93q-15 -42 -29 -74q-34 -77 -84 -153q-50 -77 -118 -162l-186 155q74 50 131 108q57 57 99 118t71 124t47 126q-95 -1 -178 3q-84 4 -148 19q-64 14 -104 43q-41 28 -48 76q-9 50 -4 115q5 64 21 132q16 67 43 132q27 64 63 115
q35 50 78 81q42 31 89 31q61 0 116 -49q54 -50 95 -138t66 -209q25 -122 29 -266q1 -66 -6 -124zM538 181q-9 79 -28 147q-20 68 -48 119q-28 50 -63 79q-36 28 -76 28q-27 0 -50 -14q-24 -14 -43 -36q-20 -23 -35 -51q-16 -29 -27 -58t-16 -55q-6 -27 -6 -46q0 -29 27 -50
q26 -21 70 -35t102 -21q57 -7 120 -7h73z" />
    <glyph glyph-name="u0649" unicode="&#x649;" horiz-adv-x="1291" arabic-form="isolated" 
d="M324 526q-63 -90 -91 -177q-29 -87 -29 -165q0 -90 33 -167q33 -78 91 -135t136 -89q77 -32 167 -32q69 0 138 22q68 22 131 60q62 37 116 86q53 49 92 102q-8 29 -34 54t-64 47q-38 21 -83 39q-46 17 -92 32q-47 14 -92 26l-80 19q-33 11 -41 37t-8 55q3 50 22 103
q18 52 47 102q28 50 66 95q38 44 82 77q43 33 90 53q46 19 93 19q14 0 34 -4q20 -5 39 -24q18 -20 31 -59t13 -108v-9q-21 16 -46 24q-26 7 -61 7q-46 0 -93 -15q-48 -15 -89 -42q-42 -27 -74 -65q-33 -38 -49 -84q46 -10 101 -26t111 -37q56 -22 109 -49t94 -59t66 -68
q24 -37 24 -79q0 -38 -20 -93t-57 -116q-38 -61 -92 -121q-55 -61 -124 -109t-151 -78q-83 -30 -176 -30q-94 0 -169 24q-76 24 -134 64t-99 92q-42 52 -69 108t-39 113q-13 57 -13 106q0 85 16 160q15 75 42 141q26 65 60 122q34 56 72 103z" />
    <glyph glyph-name="u064A" unicode="&#x64a;" horiz-adv-x="1317" arabic-form="isolated" 
d="M324 526q-63 -90 -91 -177q-29 -87 -29 -165q0 -90 33 -167q33 -78 91 -135t136 -89q77 -32 167 -32q69 0 138 22q68 22 131 60q62 37 116 86q53 49 92 102q-8 29 -34 54t-64 47q-38 21 -83 39q-46 17 -92 32q-47 14 -92 26l-80 19q-33 11 -41 37t-8 55q3 50 22 103
q18 52 47 102q28 50 66 95q38 44 82 77q43 33 90 53q46 19 93 19q14 0 34 -4q20 -5 39 -24q18 -20 31 -59t13 -108v-9q-21 16 -46 24q-26 7 -61 7q-46 0 -93 -15q-48 -15 -89 -42q-42 -27 -74 -65q-33 -38 -49 -84q46 -10 101 -26t111 -37q56 -22 109 -49t94 -59t66 -68
q24 -37 24 -79q0 -38 -20 -93t-57 -116q-38 -61 -92 -121q-55 -61 -124 -109t-151 -78q-83 -30 -176 -30q-94 0 -169 24q-76 24 -134 64t-99 92q-42 52 -69 108t-39 113q-13 57 -13 106q0 85 16 160q15 75 42 141q26 65 60 122q34 56 72 103zM580 -710l-144 108l144 107
l144 -107zM868 -710l-143 108l106 79q16 13 37 28l146 -107z" />
    <glyph glyph-name="u067E" unicode="&#x67e;" horiz-adv-x="1317" arabic-form="isolated" 
 />
    <glyph glyph-name="u0686" unicode="&#x686;" horiz-adv-x="931" arabic-form="isolated" 
 />
    <glyph glyph-name="u0698" unicode="&#x698;" horiz-adv-x="972" arabic-form="isolated" 
 />
    <glyph glyph-name="u06AF" unicode="&#x6af;" horiz-adv-x="1675" arabic-form="isolated" 
 />
    <glyph glyph-name="uFB57" unicode="&#x67e;" horiz-adv-x="1128" arabic-form="final" 
 />
    <glyph glyph-name="uFB58" unicode="&#x67e;" horiz-adv-x="555" arabic-form="initial" 
 />
    <glyph glyph-name="uFB59" unicode="&#x67e;" horiz-adv-x="576" arabic-form="medial" 
 />
    <glyph glyph-name="uFB7B" unicode="&#x686;" horiz-adv-x="941" arabic-form="final" 
 />
    <glyph glyph-name="uFB7C" unicode="&#x686;" horiz-adv-x="866" arabic-form="initial" 
 />
    <glyph glyph-name="uFB7D" unicode="&#x686;" horiz-adv-x="879" arabic-form="medial" 
 />
    <glyph glyph-name="uFB8B" unicode="&#x698;" horiz-adv-x="791" arabic-form="final" 
 />
    <glyph glyph-name="uFEDA" unicode="&#x6a9;" horiz-adv-x="1736" arabic-form="final" 
d="M342 0q-46 0 -96 15q-51 15 -93 50t-69 92t-27 140q0 79 18 149q18 69 49 128q30 58 70 107q40 48 84 85l5 -23q-28 -31 -51 -70q-24 -39 -40 -81q-17 -42 -26 -86q-10 -44 -10 -85q0 -49 14 -92q13 -44 43 -77t77 -52t114 -19h1078v973l151 91v-1064h119v-181h-1410z
M1030 749q-102 -29 -169 -63q-68 -35 -110 -66l-15 -10l-13 -11q9 41 33 78q23 37 58 71q-60 10 -85 37q-25 26 -25 62q0 42 20 90q20 47 53 87q32 39 75 65q42 25 87 23q12 -1 25 -3t25 -7l-11 -107q-10 2 -20 3q-11 1 -21 1q-61 0 -117 -39q-57 -40 -95 -112
q23 -17 50 -28q26 -12 57 -15q38 -4 96 4t136 42z" />
    <glyph glyph-name="uFEDB" unicode="&#x6a9;" horiz-adv-x="1078" arabic-form="initial" 
d="M-15 0q-22 0 -22 23v133q0 25 22 25h841q-28 82 -78 145q-51 62 -120 105q-70 42 -155 65q-86 23 -183 26q-40 1 -71 0t-57 0v223q0 37 9 65q9 27 24 47t34 36q19 15 39 29l502 314q55 36 90 36q24 0 38 -19q13 -19 13 -51l6 -139q-6 2 -12 7q-7 5 -19 7q-17 2 -31 0
q-15 -2 -28 -8q-14 -6 -28 -15l-32 -19l-521 -331q132 -14 238 -42t190 -68q83 -41 145 -93q62 -53 107 -115q20 -28 40 -66q19 -38 35 -86q15 -49 24 -107q8 -59 5 -127h-1045z" />
    <glyph glyph-name="uFEDC" unicode="&#x6a9;" horiz-adv-x="1070" arabic-form="medial" 
d="M-15 0q-22 0 -22 23v133q0 25 22 25h841q-28 82 -78 145q-51 62 -120 105q-70 42 -155 65q-86 23 -183 26q-40 1 -71 0t-57 0v223q0 37 9 65q9 27 24 47t34 36q19 15 39 29l502 314q55 36 90 36q24 0 38 -19q13 -19 13 -51l6 -139q-6 2 -12 7q-7 5 -19 7q-17 2 -31 0
q-15 -2 -28 -8q-14 -6 -28 -15l-32 -19l-521 -331q180 -19 313 -63q132 -44 225 -111t149 -155q55 -88 81 -194h56v-181h-1085z" />
    <glyph glyph-name="uFB93" unicode="&#x6af;" horiz-adv-x="1234" arabic-form="final" 
 />
    <glyph glyph-name="uFB94" unicode="&#x6af;" horiz-adv-x="871" arabic-form="initial" 
 />
    <glyph glyph-name="uFB95" unicode="&#x6af;" horiz-adv-x="465" arabic-form="medial" 
 />
    <glyph glyph-name="uFE94" unicode="&#x6c0;" horiz-adv-x="855" arabic-form="final" 
d="M308 799l-139 139l139 140l140 -140zM451 938l140 140l137 -140l-137 -139zM662 0l-15 111l-106 -117q-26 9 -57 14t-63 8q-32 2 -62 3q-31 1 -57 1h-251l1 23q0 19 2 45q1 25 4 53q2 28 7 49q10 53 35 116q25 62 61 125t80 122q44 58 92 104q47 45 96 73q49 27 94 27
q31 0 58 -27t51 -72q23 -46 43 -105t37 -123q16 -64 30 -128q14 -65 25 -121h117v-181h-222zM453 209q37 0 68 -4q30 -4 59 -14q28 -10 63 -30q-18 76 -37 146q-19 69 -41 122q-23 53 -51 85q-29 31 -65 31q-35 0 -71 -22t-72 -65t-70 -105q-35 -62 -66 -143z" />
    <glyph glyph-name="uFEF2" unicode="&#x6cc;" horiz-adv-x="1398" arabic-form="final" 
d="M1256 11q-14 -47 -42 -101q-28 -55 -69 -109q-42 -54 -98 -104t-126 -88q-71 -39 -157 -62t-188 -23q-93 0 -168 22t-133 60t-100 89q-42 50 -69 106t-40 115t-13 114q1 85 17 160q15 75 41 141q26 65 60 122q33 56 70 104q19 -17 29 -27q9 -11 24 -25q-69 -99 -99 -190
q-30 -92 -30 -178q0 -88 30 -163t83 -130t127 -86q74 -32 161 -32q98 0 188 26q90 25 167 67q76 42 137 96t101 111q-83 25 -148 54q-66 29 -116 71l-14 12q-11 8 -22 23q-11 14 -19 35q-9 20 -9 47v90q48 -45 102 -78q54 -34 122 -55q67 -22 151 -33t193 -11h19v-181h-28
q-22 0 -38 1q-16 0 -30 2q-15 1 -30 3zM964 -708l-143 108l106 79q16 13 37 28l146 -107zM677 -708l-144 108l144 107l144 -107z" />
    <glyph glyph-name="uFEF3" unicode="&#x6cc;" horiz-adv-x="780" arabic-form="initial" 
d="M218 -372l-137 140l137 138l140 -138zM362 -232l139 138l139 -138l-139 -140zM638 181q-16 52 -33 95t-36 83q-19 39 -40 78l-55 97l-11 17l132 152q68 -144 99 -275t31 -235q0 -53 -4 -102q-4 -50 -9 -91h-734q-22 0 -22 23v133q0 25 22 25h660z" />
    <glyph glyph-name="uFEF4" unicode="&#x6cc;" horiz-adv-x="769" arabic-form="medial" 
d="M268 -369l-137 140l137 138l140 -138zM409 -229l139 138l139 -138l-139 -140zM-19 0q-22 0 -22 23v133q0 25 22 25h405q-15 52 -33 98q-19 45 -39 87q-21 42 -43 83l-62 104l133 152q66 -141 97 -275q30 -135 32 -249h323v-181h-813z" />
    <glyph glyph-name="Hcircumflex" unicode="&#x622;" horiz-adv-x="424" arabic-form="final" 
d="M82 0v1151l151 95v-1065h201v-181h-352zM-35 1237q-88 -13 -126 -39q11 72 52 117q40 45 127 63l414 65q48 11 81 20q32 9 53 22q-7 -36 -16 -66t-28 -53q-19 -24 -51 -40t-84 -25z" />
    <glyph glyph-name="uFE84" unicode="&#x623;" horiz-adv-x="434" arabic-form="final" 
d="M82 0v1151l151 95v-1065h201v-181h-352zM297 1332q-102 -29 -169 -63q-68 -35 -110 -66l-15 -10l-13 -11q9 41 35 84t61 77q-64 5 -91 34q-28 28 -28 64q0 47 21 95t56 87q34 38 78 62t89 22q12 -1 25 -3t25 -7l-11 -107q-10 2 -20 3q-11 1 -21 1q-30 0 -60 -8
q-30 -9 -55 -26q-26 -18 -45 -45q-20 -27 -29 -64q15 -26 34 -37t50 -14q38 -4 96 4t136 42z" />
    <glyph glyph-name="uFE86" unicode="&#x624;" horiz-adv-x="742" arabic-form="final" 
d="M644 0q-9 -92 -27 -172t-47 -144q-34 -77 -84 -153q-50 -77 -118 -162l-186 155q74 50 131 108q57 57 99 118t71 124t47 126q-95 -1 -178 3q-84 4 -148 19q-64 14 -104 43q-41 28 -48 76q-9 50 -4 115q5 64 21 132q16 67 43 132q27 64 63 115q35 50 78 81q42 31 89 31
q61 0 113 -46q51 -47 90 -125q38 -79 64 -181q25 -103 35 -214h111v-181h-111zM536 181q-9 79 -28 147q-20 68 -48 119q-28 50 -63 79q-36 28 -76 28q-27 0 -50 -14q-24 -14 -43 -36q-20 -23 -35 -51q-16 -29 -27 -58t-16 -55q-6 -27 -6 -46q0 -29 27 -50q26 -21 70 -35
t102 -21q57 -7 120 -7h73zM374 845q-102 -29 -169 -63q-68 -35 -110 -66l-15 -10l-13 -11q9 41 35 84t61 77q-64 5 -91 34q-28 28 -28 64q0 47 21 95t56 87q34 38 78 62t89 22q12 -1 25 -3t25 -7l-11 -107q-10 2 -20 3q-11 1 -21 1q-30 0 -60 -8q-30 -9 -55 -26
q-26 -18 -45 -45q-20 -27 -29 -64q15 -26 34 -37t50 -14q38 -4 96 4t136 42z" />
    <glyph glyph-name="uFE88" unicode="&#x625;" horiz-adv-x="434" arabic-form="final" 
d="M82 0v1151l151 95v-1065h201v-181h-352zM354 -419q-102 -29 -169 -63q-68 -35 -110 -66l-15 -10l-13 -11q9 41 35 84t61 77q-64 5 -91 34q-28 28 -28 64q0 47 21 95t56 87q34 38 78 62t89 22q12 -1 25 -3t25 -7l-11 -107q-10 2 -20 3q-11 1 -21 1q-30 0 -60 -8
q-30 -9 -55 -26q-26 -18 -45 -45q-20 -27 -29 -64q15 -26 34 -37t50 -14q38 -4 96 4t136 42z" />
    <glyph glyph-name="uFE8A" unicode="&#x626;" horiz-adv-x="1411" arabic-form="final" 
d="M1256 11q-14 -47 -42 -101q-28 -55 -69 -109q-42 -54 -98 -104t-126 -88q-71 -39 -157 -62t-188 -23q-93 0 -168 22t-133 60t-100 89q-42 50 -69 106t-40 115t-13 114q1 85 17 160q15 75 41 141q26 65 60 122q33 56 70 104q19 -17 29 -27q9 -11 24 -25q-69 -99 -99 -190
q-30 -92 -30 -178q0 -88 30 -163t83 -130t127 -86q74 -32 161 -32q98 0 188 26q90 25 167 67q76 42 137 96t101 111q-83 25 -148 54q-66 29 -116 71l-14 12q-11 8 -22 23q-11 14 -19 35q-9 20 -9 47v90q48 -45 102 -78q54 -34 122 -55q67 -22 151 -33t193 -11h19v-181h-28
q-22 0 -38 1q-16 0 -30 2q-15 1 -30 3zM398 699q-102 -29 -169 -63q-68 -35 -110 -66l-15 -10l-13 -11q9 41 35 84t61 77q-64 5 -91 34q-28 28 -28 64q0 47 21 95t56 87q34 38 78 62t89 22q12 -1 25 -3t25 -7l-11 -107q-10 2 -20 3q-11 1 -21 1q-30 0 -60 -8q-30 -9 -55 -26
q-26 -18 -45 -45q-20 -27 -29 -64q15 -26 34 -37t50 -14q38 -4 96 4t136 42z" />
    <glyph glyph-name="uFE8B" unicode="&#x626;" horiz-adv-x="780" arabic-form="initial" 
d="M638 181q-16 52 -33 95t-36 83q-19 39 -40 78l-55 97l-11 17l132 152q68 -144 99 -275t31 -235q0 -53 -4 -102q-4 -50 -9 -91h-734q-22 0 -22 23v133q0 25 22 25h660zM572 785q-102 -29 -169 -63q-68 -35 -110 -66l-15 -10l-13 -11q9 41 35 84t61 77q-64 5 -91 34
q-28 28 -28 64q0 47 21 95t56 87q34 38 78 62t89 22q12 -1 25 -3t25 -7l-11 -107q-10 2 -20 3q-11 1 -21 1q-30 0 -60 -8q-30 -9 -55 -26q-26 -18 -45 -45q-20 -27 -29 -64q15 -26 34 -37t50 -14q38 -4 96 4t136 42z" />
    <glyph glyph-name="uFE8C" unicode="&#x626;" horiz-adv-x="716" arabic-form="medial" 
d="M-32 0q-22 0 -22 23v133q0 25 22 25h533q-15 52 -33 98q-19 45 -39 87q-21 42 -43 83l-62 104l133 152q66 -141 97 -275q30 -135 32 -249h130v-181h-748zM413 755q-102 -29 -169 -63q-68 -35 -110 -66l-15 -10l-13 -11q9 41 35 84t61 77q-64 5 -91 34q-28 28 -28 64
q0 47 21 95t56 87q34 38 78 62t89 22q12 -1 25 -3t25 -7l-11 -107q-10 2 -20 3q-11 1 -21 1q-30 0 -60 -8q-30 -9 -55 -26q-26 -18 -45 -45q-20 -27 -29 -64q15 -26 34 -37t50 -14q38 -4 96 4t136 42z" />
    <glyph glyph-name="uFE8E" unicode="&#x627;" horiz-adv-x="417" arabic-form="final" 
d="M82 0v1151l151 95v-1065h201v-181h-352z" />
    <glyph glyph-name="uFE90" unicode="&#x628;" horiz-adv-x="1637" arabic-form="final" 
d="M1448 181q-15 50 -31 92q-17 41 -35 79t-38 74l-73 125l132 152q67 -144 99 -273q31 -130 31 -235v-14h115v-181h-1322q-137 0 -213 65q-77 64 -77 189q0 60 14 117t40 110q25 52 60 100q35 47 77 88l44 -43q-25 -30 -47 -65q-23 -35 -40 -71q-18 -37 -28 -74
q-11 -37 -11 -70q0 -35 12 -65t39 -52q26 -23 69 -35q42 -13 104 -13h1079zM656 -226l138 137l138 -138l-138 -138z" />
    <glyph glyph-name="uFE91" unicode="&#x628;" horiz-adv-x="646" arabic-form="initial" 
d="M217 -232l139 138l139 -138l-139 -140zM493 181q-16 52 -33 95t-36 83q-19 39 -40 78l-55 97l-11 17l132 152q68 -144 99 -275t31 -235q0 -53 -4 -102q-4 -50 -9 -91h-589q-22 0 -22 23v133q0 25 22 25h515z" />
    <glyph glyph-name="uFE92" unicode="&#x628;" horiz-adv-x="629" arabic-form="medial" 
d="M338 -369l-137 140l137 138l140 -138zM-19 0q-22 0 -22 23v133q0 25 22 25h335q-15 52 -33 98q-19 45 -39 87q-21 42 -43 83l-62 104l133 152q66 -141 97 -275q30 -135 32 -249h250v-181h-670z" />
    <glyph glyph-name="uFE96" unicode="&#x62a;" horiz-adv-x="1637" arabic-form="final" 
d="M1448 181q-15 50 -31 92q-17 41 -35 79t-38 74l-73 125l132 152q67 -144 99 -273q31 -130 31 -235v-14h115v-181h-1322q-137 0 -213 65q-77 64 -77 189q0 60 14 117t40 110q25 52 60 100q35 47 77 88l44 -43q-25 -30 -47 -65q-23 -35 -40 -71q-18 -37 -28 -74
q-11 -37 -11 -70q0 -35 12 -65t39 -52q26 -23 69 -35q42 -13 104 -13h1079zM797 905l138 137l138 -138l-138 -138zM520 905l138 137l138 -138l-138 -138z" />
    <glyph glyph-name="uFE97" unicode="&#x62a;" horiz-adv-x="780" arabic-form="initial" 
d="M638 181q-16 52 -33 95t-36 83q-19 39 -40 78l-55 97l-11 17l132 152q68 -144 99 -275t31 -235q0 -53 -4 -102q-4 -50 -9 -91h-734q-22 0 -22 23v133q0 25 22 25h660zM345 905l138 137l138 -138l-138 -138zM68 905l138 137l138 -138l-138 -138z" />
    <glyph glyph-name="uFE98" unicode="&#x62a;" horiz-adv-x="682" arabic-form="medial" 
d="M-19 0q-22 0 -22 23v133q0 25 22 25h405q-15 52 -33 98q-19 45 -39 87q-21 42 -43 83l-62 104l133 152q66 -141 97 -275q30 -135 32 -249h245v-181h-735zM341 905l138 137l138 -138l-138 -138zM64 905l138 137l138 -138l-138 -138z" />
    <glyph glyph-name="uFE9A" unicode="&#x62b;" horiz-adv-x="1630" arabic-form="final" 
d="M1448 181q-15 50 -31 92q-17 41 -35 79t-38 74l-73 125l132 152q67 -144 99 -273q31 -130 31 -235v-14h115v-181h-1322q-137 0 -213 65q-77 64 -77 189q0 60 14 117t40 110q25 52 60 100q35 47 77 88l44 -43q-25 -30 -47 -65q-23 -35 -40 -71q-18 -37 -28 -74
q-11 -37 -11 -70q0 -35 12 -65t39 -52q26 -23 69 -35q42 -13 104 -13h1079zM656 1127l138 137l138 -138l-138 -138zM797 905l138 137l138 -138l-138 -138zM520 905l138 137l138 -138l-138 -138z" />
    <glyph glyph-name="uFE9B" unicode="&#x62b;" horiz-adv-x="780" arabic-form="initial" 
d="M638 181q-16 52 -33 95t-36 83q-19 39 -40 78l-55 97l-11 17l132 152q68 -144 99 -275t31 -235q0 -53 -4 -102q-4 -50 -9 -91h-734q-22 0 -22 23v133q0 25 22 25h660zM204 1127l138 137l138 -138l-138 -138zM345 905l138 137l138 -138l-138 -138zM68 905l138 137
l138 -138l-138 -138z" />
    <glyph glyph-name="uFE9C" unicode="&#x62b;" horiz-adv-x="689" arabic-form="medial" 
d="M-19 0q-22 0 -22 23v133q0 25 22 25h405q-15 52 -33 98q-19 45 -39 87q-21 42 -43 83l-62 104l133 152q66 -141 97 -275q30 -135 32 -249h245v-181h-735zM200 1127l138 137l138 -138l-138 -138zM341 905l138 137l138 -138l-138 -138zM64 905l138 137l138 -138l-138 -138z
" />
    <glyph glyph-name="uFE9E" unicode="&#x62c;" horiz-adv-x="1053" arabic-form="final" 
d="M575 -364l-140 139l140 139l139 -139zM894 -672q-38 -12 -84 -20q-47 -9 -93 -15q-47 -6 -89 -9q-43 -4 -72 -5q-93 -2 -166 17q-74 19 -130 53t-96 81q-41 47 -67 101t-40 113q-14 58 -17 116q1 73 26 160t81 180q55 93 145 188q89 95 220 184l-143 35l-57 12l-43 6
q-33 3 -66 3q-62 0 -104 -13q-42 -14 -71 -41l-7 -7q-4 -3 -9 -9l-6 5l68 112q22 36 45 61q22 25 47 40q24 15 52 22q27 6 60 6q22 0 56 -4q33 -4 74 -11l292 -62q55 -12 107 -19t98 -7q46 -1 79 9l-38 -93q-6 -15 -13 -35q-10 -29 -40 -46q-31 -17 -70 -17q-42 0 -101 10
q-59 9 -128 23q-1 -56 19 -105q20 -50 59 -87t96 -58q56 -21 129 -21h177v-181h-241q-76 0 -129 29t-86 82q-34 53 -50 128t-18 167q-67 -55 -131 -124q-65 -70 -115 -145q-50 -76 -81 -153q-31 -78 -31 -149q0 -47 14 -92q14 -46 43 -88q30 -43 73 -72q42 -30 93 -48
q50 -19 105 -27q55 -9 111 -9q50 0 98 5t92 13q43 8 80 18q37 9 64 18z" />
    <glyph glyph-name="uFE9F" unicode="&#x62c;" horiz-adv-x="1261" arabic-form="initial" 
d="M-28 0q-22 0 -22 23v133q0 25 22 25h964q-44 73 -97 147q-54 74 -135 148q-20 18 -48 36t-61 32q-34 14 -73 23q-39 8 -81 8q-51 0 -101 -13q-51 -14 -99 -49l-13 13l101 95q43 40 80 66q37 25 71 37q33 12 69 12q72 0 153 -47q81 -48 150 -145l95 -142q48 -75 82 -141
q23 -42 56 -61t79 -19h47l-54 -181h-1185zM681 -225l-138 -137l-138 138l138 138z" />
    <glyph glyph-name="uFEA0" unicode="&#x62c;" horiz-adv-x="1193" arabic-form="medial" 
d="M-28 0q-22 0 -22 23v133q0 25 22 25h964q-44 73 -97 147q-54 74 -135 148q-20 18 -48 36t-61 32q-34 14 -73 23q-39 8 -81 8q-51 0 -101 -13q-51 -14 -99 -49l-13 13l101 95q43 40 80 66q37 25 71 37q33 12 69 12q72 0 153 -47q81 -48 150 -145l95 -142q48 -75 82 -141
q23 -42 56 -61t79 -19h47v-181h-1239zM681 -225l-138 -137l-138 138l138 138z" />
    <glyph glyph-name="uFEA2" unicode="&#x62d;" horiz-adv-x="1053" arabic-form="final" 
d="M894 -672q-38 -12 -84 -20q-47 -9 -93 -15q-47 -6 -89 -9q-43 -4 -72 -5q-93 -2 -166 17q-74 19 -130 53t-96 81q-41 47 -67 101t-40 113q-14 58 -17 116q1 73 26 160t81 180q55 93 145 188q89 95 220 184l-143 35l-57 12l-43 6q-33 3 -66 3q-62 0 -104 -13
q-42 -14 -71 -41l-7 -7q-4 -3 -9 -9l-6 5l68 112q22 36 45 61q22 25 47 40q24 15 52 22q27 6 60 6q22 0 56 -4q33 -4 74 -11l292 -62q55 -12 107 -19t98 -7q46 -1 79 9l-38 -93q-6 -15 -13 -35q-10 -29 -40 -46q-31 -17 -70 -17q-42 0 -101 10q-59 9 -128 23q-1 -56 19 -105
q20 -50 59 -87t96 -58q56 -21 129 -21h177v-181h-241q-76 0 -129 29t-86 82q-34 53 -50 128t-18 167q-67 -55 -131 -124q-65 -70 -115 -145q-50 -76 -81 -153q-31 -78 -31 -149q0 -47 14 -92q14 -46 43 -88q30 -43 73 -72q42 -30 93 -48q50 -19 105 -27q55 -9 111 -9
q50 0 98 5t92 13q43 8 80 18q37 9 64 18z" />
    <glyph glyph-name="uFEA3" unicode="&#x62d;" horiz-adv-x="1250" arabic-form="initial" 
d="M-28 0q-22 0 -22 23v133q0 25 22 25h964q-44 73 -97 147q-54 74 -135 148q-20 18 -48 36t-61 32q-34 14 -73 23q-39 8 -81 8q-51 0 -101 -13q-51 -14 -99 -49l-13 13l101 95q43 40 80 66q37 25 71 37q33 12 69 12q72 0 153 -47q81 -48 150 -145l95 -142q48 -75 82 -141
q23 -42 56 -61t79 -19h47l-54 -181h-1185z" />
    <glyph glyph-name="uFEA4" unicode="&#x62d;" horiz-adv-x="1193" arabic-form="medial" 
d="M-28 0q-22 0 -22 23v133q0 25 22 25h964q-44 73 -97 147q-54 74 -135 148q-20 18 -48 36t-61 32q-34 14 -73 23q-39 8 -81 8q-51 0 -101 -13q-51 -14 -99 -49l-13 13l101 95q43 40 80 66q37 25 71 37q33 12 69 12q72 0 153 -47q81 -48 150 -145l95 -142q48 -75 82 -141
q23 -42 56 -61t79 -19h47v-181h-1239z" />
    <glyph glyph-name="uFEA6" unicode="&#x62e;" horiz-adv-x="1053" arabic-form="final" 
d="M575 765l-140 139l140 139l139 -139zM894 -672q-38 -12 -84 -20q-47 -9 -93 -15q-47 -6 -89 -9q-43 -4 -72 -5q-93 -2 -166 17q-74 19 -130 53t-96 81q-41 47 -67 101t-40 113q-14 58 -17 116q1 73 26 160t81 180q55 93 145 188q89 95 220 184l-143 35l-57 12l-43 6
q-33 3 -66 3q-62 0 -104 -13q-42 -14 -71 -41l-7 -7q-4 -3 -9 -9l-6 5l68 112q22 36 45 61q22 25 47 40q24 15 52 22q27 6 60 6q22 0 56 -4q33 -4 74 -11l292 -62q55 -12 107 -19t98 -7q46 -1 79 9l-38 -93q-6 -15 -13 -35q-10 -29 -40 -46q-31 -17 -70 -17q-42 0 -101 10
q-59 9 -128 23q-1 -56 19 -105q20 -50 59 -87t96 -58q56 -21 129 -21h177v-181h-241q-76 0 -129 29t-86 82q-34 53 -50 128t-18 167q-67 -55 -131 -124q-65 -70 -115 -145q-50 -76 -81 -153q-31 -78 -31 -149q0 -47 14 -92q14 -46 43 -88q30 -43 73 -72q42 -30 93 -48
q50 -19 105 -27q55 -9 111 -9q50 0 98 5t92 13q43 8 80 18q37 9 64 18z" />
    <glyph glyph-name="uFEA7" unicode="&#x62e;" horiz-adv-x="1263" arabic-form="initial" 
d="M-28 0q-22 0 -22 23v133q0 25 22 25h964q-44 73 -97 147q-54 74 -135 148q-20 18 -48 36t-61 32q-34 14 -73 23q-39 8 -81 8q-51 0 -101 -13q-51 -14 -99 -49l-13 13l101 95q43 40 80 66q37 25 71 37q33 12 69 12q72 0 153 -47q81 -48 150 -145l95 -142q48 -75 82 -141
q23 -42 56 -61t79 -19h47l-54 -181h-1185zM681 945l-138 -137l-138 138l138 138z" />
    <glyph glyph-name="uFEA8" unicode="&#x62e;" horiz-adv-x="1193" arabic-form="medial" 
d="M-28 0q-22 0 -22 23v133q0 25 22 25h964q-44 73 -97 147q-54 74 -135 148q-20 18 -48 36t-61 32q-34 14 -73 23q-39 8 -81 8q-51 0 -101 -13q-51 -14 -99 -49l-13 13l101 95q43 40 80 66q37 25 71 37q33 12 69 12q72 0 153 -47q81 -48 150 -145l95 -142q48 -75 82 -141
q23 -42 56 -61t79 -19h47v-181h-1239zM681 945l-138 -137l-138 138l138 138z" />
    <glyph glyph-name="uFEAA" unicode="&#x62f;" horiz-adv-x="908" arabic-form="final" 
d="M682 181q-6 80 -38 142q-32 61 -71 105q-40 44 -78 72l-87 62l105 178q53 -45 101 -95t85 -115t60 -150q22 -85 24 -199h147v-181h-729q-38 0 -64 10q-26 9 -42 26q-17 17 -24 40q-8 22 -8 49q0 23 4 46t12 47q14 -17 40 -27q25 -10 66 -10h497z" />
    <glyph glyph-name="uFEAC" unicode="&#x630;" horiz-adv-x="908" arabic-form="final" 
d="M682 181q-6 80 -38 142q-32 61 -71 105q-40 44 -78 72l-87 62l105 178q53 -45 101 -95t85 -115t60 -150q22 -85 24 -199h147v-181h-729q-38 0 -64 10q-26 9 -42 26q-17 17 -24 40q-8 22 -8 49q0 23 4 46t12 47q14 -17 40 -27q25 -10 66 -10h497zM283 764l-139 140
l139 139l140 -139z" />
    <glyph glyph-name="uFEAE" unicode="&#x631;" horiz-adv-x="616" arabic-form="final" 
d="M482 0q-7 -72 -24 -147q-18 -75 -50 -154q-33 -79 -83 -161q-50 -83 -122 -170l-185 155q91 63 156 134q64 71 107 147t69 157q26 80 41 162q-13 63 -30 117t-39 104q-23 50 -51 100q-28 49 -63 103l125 166q59 -125 99 -259q39 -135 53 -273h144v-181h-147z" />
    <glyph glyph-name="uFEB0" unicode="&#x632;" horiz-adv-x="603" arabic-form="final" 
d="M16 905l139 139l137 -139l-137 -138zM482 0q-7 -72 -24 -147q-18 -75 -50 -154q-33 -79 -83 -161q-50 -83 -122 -170l-185 155q91 63 156 134q64 71 107 147t69 157q26 80 41 162q-13 63 -30 117t-39 104q-23 50 -51 100q-28 49 -63 103l125 166q59 -125 99 -259
q39 -135 53 -273h144v-181h-147z" />
    <glyph glyph-name="uFEB2" unicode="&#x633;" horiz-adv-x="1928" arabic-form="final" 
d="M1143 0q-8 -56 -33 -121t-65 -129q-41 -65 -96 -124q-56 -60 -124 -105q-68 -46 -148 -73q-80 -28 -170 -28q-116 0 -200 47q-85 46 -141 122q-56 75 -83 172t-27 199q0 61 10 121q9 59 27 114t46 104q27 49 63 88q15 -17 21 -25l17 -21q-47 -73 -68 -144
q-21 -72 -21 -138q0 -86 32 -160q31 -75 86 -130q54 -55 128 -86q74 -32 159 -32q61 0 122 18q60 18 115 49t103 72q48 40 84 85q36 44 57 90t23 88q-12 53 -29 100q-18 47 -40 92q-22 44 -48 89l-57 94l110 148q101 -187 140 -395h230q-9 49 -21 92q-13 43 -28 83
q-16 40 -36 80q-21 40 -47 84l114 147q59 -128 89 -253q30 -126 35 -233h239q-11 53 -21 97q-11 43 -24 84q-13 40 -31 79t-43 83l-16 28l114 149q66 -142 96 -272t30 -234v-14h139v-181h-812z" />
    <glyph glyph-name="uFEB3" unicode="&#x633;" horiz-adv-x="1126" arabic-form="initial" 
d="M235 181q-12 32 -25 60q-14 28 -29 55q-16 27 -34 55l-52 77l110 148q101 -187 140 -395h230q-9 49 -21 92q-13 43 -28 83q-16 40 -36 80q-21 40 -47 84l114 147q59 -128 89 -253q30 -126 35 -233h239q-11 53 -21 97q-11 43 -24 84q-13 40 -31 79t-43 83l-16 28l114 149
q66 -142 96 -272t30 -234l1 -195h-1036v181h245z" />
    <glyph glyph-name="uFEB4" unicode="&#x633;" horiz-adv-x="1146" arabic-form="medial" 
d="M235 181q-12 32 -25 60q-14 28 -29 55q-16 27 -34 55l-52 77l110 148q101 -187 140 -395h230q-9 49 -21 92q-13 43 -28 83q-16 40 -36 80q-21 40 -47 84l114 147q59 -128 89 -253q30 -126 35 -233h239q-11 53 -21 97q-11 43 -24 84q-13 40 -31 79t-43 83l-16 28l114 149
q66 -142 96 -272t30 -234v-14h136v-181h-1171v181h245z" />
    <glyph glyph-name="uFEB6" unicode="&#x634;" horiz-adv-x="1935" arabic-form="final" 
d="M1173 766l-139 140l139 139l140 -139zM1319 906l140 139l139 -139l-139 -140zM1168 1145l140 137l137 -137l-137 -139zM1143 0q-8 -56 -33 -121t-65 -129q-41 -65 -96 -124q-56 -60 -124 -105q-68 -46 -148 -73q-80 -28 -170 -28q-116 0 -200 47q-85 46 -141 122
q-56 75 -83 172t-27 199q0 61 10 121q9 59 27 114t46 104q27 49 63 88q15 -17 21 -25l17 -21q-47 -73 -68 -144q-21 -72 -21 -138q0 -86 32 -160q31 -75 86 -130q54 -55 128 -86q74 -32 159 -32q61 0 122 18q60 18 115 49t103 72q48 40 84 85q36 44 57 90t23 88
q-12 53 -29 100q-18 47 -40 92q-22 44 -48 89l-57 94l110 148q101 -187 140 -395h230q-9 49 -21 92q-13 43 -28 83q-16 40 -36 80q-21 40 -47 84l114 147q59 -128 89 -253q30 -126 35 -233h239q-11 53 -21 97q-11 43 -24 84q-13 40 -31 79t-43 83l-16 28l114 149
q66 -142 96 -272t30 -234v-14h139v-181h-812z" />
    <glyph glyph-name="uFEB7" unicode="&#x634;" horiz-adv-x="1114" arabic-form="initial" 
d="M380 766l-139 140l139 139l140 -139zM526 906l140 139l139 -139l-139 -140zM375 1145l140 137l137 -137l-137 -139zM235 181q-12 32 -25 60q-14 28 -29 55q-16 27 -34 55l-52 77l110 148q101 -187 140 -395h230q-9 49 -21 92q-13 43 -28 83q-16 40 -36 80q-21 40 -47 84
l114 147q59 -128 89 -253q30 -126 35 -233h239q-11 53 -21 97q-11 43 -24 84q-13 40 -31 79t-43 83l-16 28l114 149q66 -142 96 -272t30 -234l1 -195h-1036v181h245z" />
    <glyph glyph-name="uFEB8" unicode="&#x634;" horiz-adv-x="1146" arabic-form="medial" 
d="M235 181q-12 32 -25 60q-14 28 -29 55q-16 27 -34 55l-52 77l110 148q101 -187 140 -395h230q-9 49 -21 92q-13 43 -28 83q-16 40 -36 80q-21 40 -47 84l114 147q59 -128 89 -253q30 -126 35 -233h239q-11 53 -21 97q-11 43 -24 84q-13 40 -31 79t-43 83l-16 28l114 149
q66 -142 96 -272t30 -234v-14h135v-181h-1170v181h245zM526 906l140 139l139 -139l-139 -140zM380 766l-139 140l139 139l140 -139zM375 1145l140 137l137 -137l-137 -139z" />
    <glyph glyph-name="uFEBA" unicode="&#x635;" horiz-adv-x="2352" arabic-form="final" 
d="M2164 181q0 104 -27 172q-28 67 -70 107q-42 39 -91 55q-49 15 -92 15q-35 0 -66 -6q-32 -6 -66 -21t-74 -40q-40 -26 -90 -65l-114 -92l-146 -125h836zM1151 0q-8 -56 -33 -121t-65 -129q-41 -65 -96 -124q-56 -60 -124 -105q-68 -46 -148 -73q-80 -28 -170 -28
q-116 0 -200 47q-85 46 -141 122q-56 75 -83 172t-27 199q0 61 10 121q9 59 27 114t46 104q27 49 63 88q15 -17 21 -25l17 -21q-47 -73 -68 -144q-21 -72 -21 -138q0 -86 32 -160q31 -75 86 -130q54 -55 128 -86q74 -32 159 -32q61 0 122 18t117 49t105 72q48 40 85 85
q36 44 58 90t24 88q-13 53 -31 100q-18 46 -41 90t-51 89l-60 96l110 148q101 -187 140 -395h46l89 92l100 98l107 99q54 49 108 93q54 43 106 79t99 59q32 15 69 24q36 8 71 8t70 -8q34 -9 66 -26l-1 1q33 -19 67 -52t62 -83q27 -51 45 -121q18 -71 18 -165q0 -23 -1 -47
l-4 -51h114v-181h-1222z" />
    <glyph glyph-name="uFEBB" unicode="&#x635;" horiz-adv-x="1678" arabic-form="initial" 
d="M346 181q-26 62 -61 120l-80 127l110 148q101 -187 140 -395h46l89 92l100 98l107 99q54 49 108 93q54 43 106 79t99 59q32 15 69 24q36 8 71 8t70 -8q34 -9 66 -26l-1 1q33 -19 67 -52t62 -83q27 -51 45 -121q18 -71 18 -165l-1 -38q-1 -28 -4 -65q-3 -38 -8 -83
q-6 -46 -15 -93h-1573v181h370zM1477 181q0 104 -27 172q-28 67 -70 107q-42 39 -91 55q-49 15 -92 15q-35 0 -66 -6q-32 -6 -66 -21t-74 -40q-40 -26 -90 -65l-113 -92l-147 -125h836z" />
    <glyph glyph-name="uFEBC" unicode="&#x635;" horiz-adv-x="1663" arabic-form="medial" 
d="M346 181q-26 62 -61 120l-80 127l110 148q101 -187 140 -395h46l89 92l100 98l107 99q54 49 108 93q54 43 106 79t99 59q32 15 69 24q36 8 71 8t70 -8q34 -9 66 -26l-1 1q33 -19 67 -52t62 -83q27 -51 45 -121q18 -71 18 -165q0 -23 -1 -47l-4 -51h113v-181h-1709v181
h370zM1477 181q0 104 -27 172q-28 67 -70 107q-42 39 -91 55q-49 15 -92 15q-35 0 -66 -6q-32 -6 -66 -21t-74 -40q-40 -26 -90 -65l-113 -92l-147 -125h836z" />
    <glyph glyph-name="uFEBE" unicode="&#x636;" horiz-adv-x="2352" arabic-form="final" 
d="M1850 803l-140 139l140 140l139 -140zM2164 181q0 104 -27 172q-28 67 -70 107q-42 39 -91 55q-49 15 -92 15q-35 0 -66 -6q-32 -6 -66 -21t-74 -40q-40 -26 -90 -65l-114 -92l-146 -125h836zM1151 0q-8 -56 -33 -121t-65 -129q-41 -65 -96 -124q-56 -60 -124 -105
q-68 -46 -148 -73q-80 -28 -170 -28q-116 0 -200 47q-85 46 -141 122q-56 75 -83 172t-27 199q0 61 10 121q9 59 27 114t46 104q27 49 63 88q15 -17 21 -25l17 -21q-47 -73 -68 -144q-21 -72 -21 -138q0 -86 32 -160q31 -75 86 -130q54 -55 128 -86q74 -32 159 -32
q61 0 122 18t117 49t105 72q48 40 85 85q36 44 58 90t24 88q-13 53 -31 100q-18 46 -41 90t-51 89l-60 96l110 148q101 -187 140 -395h46l89 92l100 98l107 99q54 49 108 93q54 43 106 79t99 59q32 15 69 24q36 8 71 8t70 -8q34 -9 66 -26l-1 1q33 -19 67 -52t62 -83
q27 -51 45 -121q18 -71 18 -165q0 -23 -1 -47l-4 -51h114v-181h-1222z" />
    <glyph glyph-name="uFEBF" unicode="&#x636;" horiz-adv-x="1678" arabic-form="initial" 
d="M346 181q-26 62 -61 120l-80 127l110 148q101 -187 140 -395h46l89 92l100 98l107 99q54 49 108 93q54 43 106 79t99 59q32 15 69 24q36 8 71 8t70 -8q34 -9 66 -26l-1 1q33 -19 67 -52t62 -83q27 -51 45 -121q18 -71 18 -165l-1 -38q-1 -28 -4 -65q-3 -38 -8 -83
q-6 -46 -15 -93h-1573v181h370zM1477 181q0 104 -27 172q-28 67 -70 107q-42 39 -91 55q-49 15 -92 15q-35 0 -66 -6q-32 -6 -66 -21t-74 -40q-40 -26 -90 -65l-113 -92l-147 -125h836zM1048 803l-140 139l140 140l139 -140z" />
    <glyph glyph-name="uFEC0" unicode="&#x636;" horiz-adv-x="1663" arabic-form="medial" 
d="M346 181q-26 62 -61 120l-80 127l110 148q101 -187 140 -395h46l89 92l100 98l107 99q54 49 108 93q54 43 106 79t99 59q32 15 69 24q36 8 71 8t70 -8q34 -9 66 -26l-1 1q33 -19 67 -52t62 -83q27 -51 45 -121q18 -71 18 -165q0 -23 -1 -47l-4 -51h113v-181h-1709v181
h370zM1477 181q0 104 -27 172q-28 67 -70 107q-42 39 -91 55q-49 15 -92 15q-35 0 -66 -6q-32 -6 -66 -21t-74 -40q-40 -26 -90 -65l-113 -92l-147 -125h836zM1048 803l-140 139l140 140l139 -140z" />
    <glyph glyph-name="uFEC2" unicode="&#x637;" horiz-adv-x="1325" arabic-form="final" 
d="M1141 181q0 103 -25 171t-63 109q-38 40 -85 56t-90 16q-51 0 -104 -15t-121 -54t-157 -107q-90 -69 -214 -176h859zM52 0l-36 181h127q17 20 34 38l35 36l81 77v826l144 89v-801l107 90q61 50 128 93t136 73q68 29 129 29q58 0 104 -20t82 -54t62 -79q25 -45 42 -94
q16 -50 24 -102q7 -52 7 -99l-1 -50l-4 -52h92v-181h-1293z" />
    <glyph glyph-name="uFEC3" unicode="&#x637;" horiz-adv-x="1343" arabic-form="initial" 
d="M1141 181q0 103 -25 171t-63 109q-38 40 -85 56t-90 16q-51 0 -104 -15t-121 -54t-157 -107q-90 -69 -214 -176h859zM-36 156q0 25 22 25h157q17 20 34 38l35 36l81 77v826l144 89v-801l107 90q61 50 128 93t136 73q68 29 129 29q58 0 104 -20t82 -54t62 -79
q25 -45 42 -94q16 -50 24 -102q7 -52 7 -99l-1 -80q-2 -33 -7 -83t-14 -120h-1250q-22 0 -22 23v133z" />
    <glyph glyph-name="uFEC4" unicode="&#x637;" horiz-adv-x="1312" arabic-form="medial" 
d="M1141 181q0 103 -25 171t-63 109q-38 40 -85 56t-90 16q-51 0 -104 -15t-121 -54t-157 -107q-90 -69 -214 -176h859zM-14 0q-22 0 -22 23v133q0 25 22 25h157q17 20 34 38l35 36l81 77v826l144 89v-801l107 90q61 50 128 93t136 73q68 29 129 29q58 0 104 -20t82 -54
t62 -79q25 -45 42 -94q16 -50 24 -102q7 -52 7 -99l-1 -50l-4 -52h92v-181h-1359z" />
    <glyph glyph-name="uFEC6" unicode="&#x638;" horiz-adv-x="1325" arabic-form="final" 
d="M684 958l139 140l137 -140l-137 -139zM1141 181q0 103 -25 171t-63 109q-38 40 -85 56t-90 16q-51 0 -104 -15t-121 -54t-157 -107q-90 -69 -214 -176h859zM52 0l-36 181h127q17 20 34 38l35 36l81 77v826l144 89v-801l107 90q61 50 128 93t136 73q68 29 129 29
q58 0 104 -20t82 -54t62 -79q25 -45 42 -94q16 -50 24 -102q7 -52 7 -99l-1 -50l-4 -52h92v-181h-1293z" />
    <glyph glyph-name="uFEC7" unicode="&#x638;" horiz-adv-x="1335" arabic-form="initial" 
d="M684 958l139 140l137 -140l-137 -139zM1141 181q0 103 -25 171t-63 109q-38 40 -85 56t-90 16q-51 0 -104 -15t-121 -54t-157 -107q-90 -69 -214 -176h859zM-36 156q0 25 22 25h157q17 20 34 38l35 36l81 77v826l144 89v-801l107 90q61 50 128 93t136 73q68 29 129 29
q58 0 104 -20t82 -54t62 -79q25 -45 42 -94q16 -50 24 -102q7 -52 7 -99l-1 -80q-2 -33 -7 -83t-14 -120h-1250q-22 0 -22 23v133z" />
    <glyph glyph-name="uFEC8" unicode="&#x638;" horiz-adv-x="1325" arabic-form="medial" 
d="M684 958l139 140l137 -140l-137 -139zM1141 181q0 103 -25 171t-63 109q-38 40 -85 56t-90 16q-51 0 -104 -15t-121 -54t-157 -107q-90 -69 -214 -176h859zM-14 0q-22 0 -22 23v133q0 25 22 25h157q17 20 34 38l35 36l81 77v826l144 89v-801l107 90q61 50 128 93t136 73
q68 29 129 29q58 0 104 -20t82 -54t62 -79q25 -45 42 -94q16 -50 24 -102q7 -52 7 -99l-1 -50l-4 -52h92v-181h-1359z" />
    <glyph glyph-name="uFECA" unicode="&#x639;" horiz-adv-x="1067" arabic-form="final" 
d="M875 0q-58 0 -99 7q-42 7 -73 22t-54 37t-44 52q-49 -37 -92 -79t-74 -87q-32 -45 -50 -93q-19 -49 -19 -98q0 -53 23 -101q23 -49 75 -85q51 -37 134 -58q83 -22 202 -22q44 1 90 8q46 6 89 15q43 8 81 18q38 9 66 18l-71 -227q-38 -11 -75 -19t-75 -13t-77 -8t-82 -4
q-148 0 -250 37q-103 37 -167 98q-65 61 -95 141q-30 79 -31 165q5 67 29 134q23 66 62 128q39 61 92 116t116 101q-30 28 -64 65l-73 76q-38 38 -77 74q-40 36 -79 63t-75 41q-37 14 -69 7l99 152q103 26 211 39q107 12 199 12q96 0 175 -10q79 -11 135 -36q56 -26 87 -68
t31 -104q0 -50 -27 -96q-28 -46 -69 -87q-42 -42 -90 -79l-91 -71h379v-181h-233zM699 311q38 24 69 51t51 56q19 28 19 57q0 21 -13 39t-42 32q-29 13 -75 21q-47 8 -113 10q-56 0 -128 -5l-160 -14q69 -46 117 -87q47 -42 82 -79t62 -69t54 -58q38 21 77 46z" />
    <glyph glyph-name="uFECB" unicode="&#x639;" horiz-adv-x="1025" arabic-form="initial" 
d="M-9 0q-22 0 -22 23v133q0 25 22 25h368q-34 6 -65 31q-31 24 -55 59t-38 76q-15 41 -15 80q0 16 1 30t3 26q12 64 48 114t89 85q53 34 119 53q65 18 137 18q88 0 180 -29q92 -30 177 -90l-29 -106q-76 46 -145 66t-129 20q-63 0 -113 -19q-51 -20 -86 -51
q-35 -32 -53 -72q-19 -41 -19 -83q0 -45 20 -83q19 -38 63 -65q43 -28 114 -44q70 -16 173 -16h210v-181h-955z" />
    <glyph glyph-name="uFECC" unicode="&#x639;" horiz-adv-x="1100" arabic-form="medial" 
d="M715 311q38 24 69 51t51 56q19 28 19 57q0 21 -13 39t-42 32q-29 13 -75 21q-47 8 -113 10q-56 0 -128 -5l-160 -14q69 -46 117 -87q47 -42 82 -79t62 -69t54 -58q38 21 77 46zM734 0q-38 3 -64 20t-52 38q-40 -34 -67 -46t-52 -12h-506q-22 0 -22 23v133q0 25 22 25h553
q-29 25 -64 63l-76 78l-82 81q-42 40 -84 71q-42 30 -81 46q-40 16 -74 9l99 152q103 26 211 39q107 12 199 12q96 0 175 -10q79 -11 135 -36q56 -26 87 -68t31 -104q0 -50 -27 -96q-28 -46 -69 -87q-42 -42 -90 -79l-91 -71h375v-181h-386z" />
    <glyph glyph-name="uFECE" unicode="&#x63a;" horiz-adv-x="1087" arabic-form="final" 
d="M578 785l-138 139l138 140l139 -140zM875 0q-58 0 -99 7q-42 7 -73 22t-54 37t-44 52q-49 -37 -92 -79t-74 -87q-32 -45 -50 -93q-19 -49 -19 -98q0 -53 23 -101q23 -49 75 -85q51 -37 134 -58q83 -22 202 -22q44 1 90 8q46 6 89 15q43 8 81 18q38 9 66 18l-71 -227
q-38 -11 -75 -19t-75 -13t-77 -8t-82 -4q-148 0 -250 37q-103 37 -167 98q-65 61 -95 141q-30 79 -31 165q5 67 29 134q23 66 62 128q39 61 92 116t116 101q-30 28 -64 65l-73 76q-38 38 -77 74q-40 36 -79 63t-75 41q-37 14 -69 7l99 152q103 26 211 39q107 12 199 12
q96 0 175 -10q79 -11 135 -36q56 -26 87 -68t31 -104q0 -50 -27 -96q-28 -46 -69 -87q-42 -42 -90 -79l-91 -71h379v-181h-233zM699 311q38 24 69 51t51 56q19 28 19 57q0 21 -13 39t-42 32q-29 13 -75 21q-47 8 -113 10q-56 0 -128 -5l-160 -14q69 -46 117 -87
q47 -42 82 -79t62 -69t54 -58q38 21 77 46z" />
    <glyph glyph-name="uFECF" unicode="&#x63a;" horiz-adv-x="1015" arabic-form="initial" 
d="M454 968l138 139l139 -139l-139 -139zM-9 0q-22 0 -22 23v133q0 25 22 25h368q-34 6 -65 31q-31 24 -55 59t-38 76q-15 41 -15 80q0 16 1 30t3 26q12 64 48 114t89 85q53 34 119 53q65 18 137 18q88 0 180 -29q92 -30 177 -90l-29 -106q-76 46 -145 66t-129 20
q-63 0 -113 -19q-51 -20 -86 -51q-35 -32 -53 -72q-19 -41 -19 -83q0 -45 20 -83q19 -38 63 -65q43 -28 114 -44q70 -16 173 -16h210v-181h-955z" />
    <glyph glyph-name="uFED0" unicode="&#x63a;" horiz-adv-x="1093" arabic-form="medial" 
d="M594 785l-138 139l138 140l139 -140zM715 311q38 24 69 51t51 56q19 28 19 57q0 21 -13 39t-42 32q-29 13 -75 21q-47 8 -113 10q-56 0 -128 -5l-160 -14q69 -46 117 -87q47 -42 82 -79t62 -69t54 -58q38 21 77 46zM734 0q-38 3 -64 20t-52 38q-40 -34 -67 -46t-52 -12
h-506q-22 0 -22 23v133q0 25 22 25h553q-29 25 -64 63l-76 78l-82 81q-42 40 -84 71q-42 30 -81 46q-40 16 -74 9l99 152q103 26 211 39q107 12 199 12q96 0 175 -10q79 -11 135 -36q56 -26 87 -68t31 -104q0 -50 -27 -96q-28 -46 -69 -87q-42 -42 -90 -79l-91 -71h379v-181
h-390z" />
    <glyph glyph-name="uFED2" unicode="&#x641;" horiz-adv-x="1822" arabic-form="final" 
d="M332 0q-45 0 -95 15q-51 15 -93 50q-43 34 -71 91q-28 56 -28 139q0 82 21 157q20 74 54 138q33 64 76 117q43 52 88 89l42 -40q-32 -35 -59 -80q-28 -45 -48 -93q-21 -49 -33 -99t-12 -95q0 -44 12 -81q11 -38 38 -66q26 -29 68 -45t102 -16h1259q-6 33 -8 52l-9 56
l-6 28q-114 -26 -194 -36q-81 -11 -136 -11q-73 0 -117 13q-44 12 -67 30q-24 17 -31 35q-8 17 -8 28l-1 32q0 118 29 211q29 92 74 158q44 65 96 102q52 36 98 43q7 1 15 1h12q81 0 144 -59q62 -60 107 -161q45 -102 71 -237t33 -285h92v-181h-1515zM1414 443q67 4 175 27
q-23 62 -48 112t-52 85q-28 35 -58 54t-63 19q-34 0 -63 -18t-52 -45t-40 -59q-17 -33 -27 -61q-11 -28 -15 -48q-4 -21 0 -25q23 -20 66 -32q42 -12 112 -12q31 0 66 3h-1zM1247 1124l140 140l137 -140l-137 -139z" />
    <glyph glyph-name="uFED3" unicode="&#x641;" horiz-adv-x="944" arabic-form="initial" 
d="M-28 156q0 25 22 25h758l-17 98l-7 33q-114 -26 -194 -34q-81 -8 -136 -8q-73 0 -117 13t-67 31q-24 17 -32 35t-9 29v-1q-4 125 25 223q28 98 73 167t100 108q54 39 101 46l14 2h12q79 0 142 -58q62 -58 107 -157t72 -230t35 -277l7 -201h-867q-22 0 -22 23v133z
M637 580q-25 50 -52 86q-27 35 -57 55q-30 19 -62 19q-35 0 -64 -18t-52 -45t-40 -59q-17 -33 -27 -61q-11 -28 -14 -48q-4 -21 0 -25q23 -20 65 -32q42 -13 111 -13q64 0 123 9q59 8 116 20q-22 62 -47 112zM335 1124l140 140l137 -140l-137 -139z" />
    <glyph glyph-name="uFED4" unicode="&#x641;" horiz-adv-x="921" arabic-form="medial" 
d="M637 580q-25 50 -52 86q-27 35 -57 55q-30 19 -62 19q-35 0 -64 -18t-52 -45t-40 -59q-17 -33 -27 -61q-11 -28 -14 -48q-4 -21 0 -25q23 -20 65 -32q42 -13 111 -13q64 0 123 9q59 8 116 20q-22 62 -47 112zM356 1124l140 140l137 -140l-137 -139zM-6 0q-22 0 -22 23
v133q0 25 22 25h758l-17 98l-7 33q-114 -26 -194 -34q-81 -8 -136 -8q-73 0 -117 13t-67 31q-24 17 -32 35t-9 29v-1q-4 125 25 223q28 98 73 167t100 108q54 39 101 46l14 2h12q54 0 100 -27q46 -28 84 -77t68 -117q29 -69 51 -151q22 -83 35 -176q13 -94 18 -194h95v-181
h-955z" />
    <glyph glyph-name="uFED6" unicode="&#x642;" horiz-adv-x="1292" arabic-form="final" 
d="M555 944l139 139l139 -139l-139 -140zM840 944l139 138l139 -138l-139 -140zM966 187q52 -4 107 -6q-12 91 -36 159q-25 68 -56 114q-31 45 -64 69q-34 24 -62 29h2q-33 7 -61 -5q-29 -12 -52 -35q-24 -23 -43 -53t-32 -58q-13 -29 -20 -52q-7 -24 -7 -34t1 -20
q0 -10 6 -20q5 -10 19 -20q13 -10 39 -19q26 -10 67 -20t102 -19q37 -6 90 -10zM1173 0q-8 -61 -30 -131q-23 -70 -61 -139q-38 -70 -91 -134q-54 -65 -123 -114q-70 -50 -155 -79q-86 -30 -187 -30q-116 0 -200 46q-85 46 -140 122q-56 75 -83 172t-27 198q0 61 9 121
q9 59 27 114t46 104q27 49 63 88l37 -42q-47 -74 -68 -146q-21 -73 -21 -138q-1 -86 26 -163q27 -78 79 -136q52 -59 128 -94t173 -35q86 -1 165 34q78 34 143 92q64 58 112 134q47 75 70 156q-106 4 -185 14q-79 9 -135 23q-57 13 -93 30q-37 17 -58 36q-22 19 -30 39
t-8 40q0 124 29 227t73 176t96 114q52 40 98 40q67 0 124 -45q56 -45 98 -121q42 -77 68 -178q26 -102 33 -214h129v-181h-131z" />
    <glyph glyph-name="uFED7" unicode="&#x642;" horiz-adv-x="944" arabic-form="initial" 
d="M-28 156q0 25 22 25h758l-17 98l-7 33q-114 -26 -194 -34q-81 -8 -136 -8q-73 0 -117 13t-67 31q-24 17 -32 35t-9 29v-1q-4 125 25 223q28 98 73 167t100 108q54 39 101 46l14 2h12q79 0 142 -58q62 -58 107 -157t72 -230t35 -277l7 -201h-867q-22 0 -22 23v133z
M637 580q-25 50 -52 86q-27 35 -57 55q-30 19 -62 19q-35 0 -64 -18t-52 -45t-40 -59q-17 -33 -27 -61q-11 -28 -14 -48q-4 -21 0 -25q23 -20 65 -32q42 -13 111 -13q64 0 123 9q59 8 116 20q-22 62 -47 112zM330 985l-139 139l139 140l140 -140zM473 1124l140 140l137 -140
l-137 -139z" />
    <glyph glyph-name="uFED8" unicode="&#x642;" horiz-adv-x="934" arabic-form="medial" 
d="M637 580q-25 50 -52 86q-27 35 -57 55q-30 19 -62 19q-35 0 -64 -18t-52 -45t-40 -59q-17 -33 -27 -61q-11 -28 -14 -48q-4 -21 0 -25q23 -20 65 -32q42 -13 111 -13q64 0 123 9q59 8 116 20q-22 62 -47 112zM330 985l-139 139l139 140l140 -140zM473 1124l140 140
l137 -140l-137 -139zM-6 0q-22 0 -22 23v133q0 25 22 25h758l-17 98l-7 33q-114 -26 -194 -34q-81 -8 -136 -8q-73 0 -117 13t-67 31q-24 17 -32 35t-9 29v-1q-4 125 25 223q28 98 73 167t100 108q54 39 101 46l14 2h12q54 0 100 -27q46 -28 84 -77t68 -117q29 -69 51 -151
q22 -83 35 -176q13 -94 18 -194h95v-181h-955z" />
    <glyph glyph-name="uFEDE" unicode="&#x644;" horiz-adv-x="1259" arabic-form="final" 
d="M1121 0q0 -123 -40 -228q-41 -105 -112 -181q-72 -77 -170 -120q-99 -44 -216 -44q-116 0 -214 42q-99 42 -170 116t-111 175t-40 220q0 123 38 223q38 99 110 175q8 -10 14 -16l31 -35q-38 -57 -60 -124q-23 -68 -23 -141q0 -92 31 -173t85 -141t128 -95q73 -35 159 -35
q95 0 171 31q75 31 128 89q52 57 80 140q28 82 28 184q0 274 1 546q1 271 1 545l151 95v-1067h164v-181h-164z" />
    <glyph glyph-name="uFEDF" unicode="&#x644;" horiz-adv-x="558" arabic-form="initial" 
d="M1 0q-22 0 -22 23v133q0 25 22 25h317v973l151 91v-1245h-468z" />
    <glyph glyph-name="uFEE0" unicode="&#x644;" horiz-adv-x="629" arabic-form="medial" 
d="M-1 0q-22 0 -22 23v133q0 25 22 25h328v973l151 91v-1064h174v-181h-653z" />
    <glyph glyph-name="uFEE2" unicode="&#x645;" horiz-adv-x="1047" arabic-form="final" 
d="M922 0q-11 -45 -25 -78t-25 -56l-7 -13q-45 45 -91 74q-47 29 -97 45t-103 22q-54 6 -113 6h-194q-38 0 -54 -22q-17 -22 -17 -57v-610l-151 -95v705q0 71 20 121q20 49 50 80q29 31 63 45t62 14h120q5 54 16 110t28 109t40 100t51 82t62 56q33 20 72 20q46 0 86 -22
q39 -22 71 -59t57 -85q25 -49 44 -102q18 -53 30 -107q11 -54 16 -102h138v-181h-149zM494 181q44 0 88 -6t89 -22t92 -42q47 -27 97 -69q4 108 -18 187q-23 78 -57 129q-35 50 -75 73t-72 20q-30 -4 -56 -19q-26 -16 -50 -48q-25 -32 -49 -81q-24 -50 -49 -122h60z" />
    <glyph glyph-name="uFEE3" unicode="&#x645;" horiz-adv-x="977" arabic-form="initial" 
d="M442 181q43 0 87 -6t89 -22t92 -42q46 -27 96 -69q4 108 -18 187q-23 78 -57 129q-35 50 -75 73t-72 20q-30 -4 -55 -19q-26 -16 -50 -48t-48 -81q-24 -50 -49 -122h60zM306 181q5 54 16 110t28 109t40 100t51 82t62 56q33 20 72 20q55 0 101 -28q45 -28 81 -73
q35 -45 61 -103t43 -117q17 -60 26 -116q8 -57 8 -100q0 -63 -14 -118q-15 -56 -34 -95l-16 -30q-8 -14 -17 -28q-45 45 -92 74t-97 46t-103 24q-54 6 -112 6h-417q-22 0 -22 23v133q0 25 22 25h313z" />
    <glyph glyph-name="uFEE4" unicode="&#x645;" horiz-adv-x="914" arabic-form="medial" 
d="M364 181q44 0 88 -6t89 -22t92 -42q47 -27 97 -69q4 108 -18 187q-22 78 -56 129q-34 50 -74 73q-41 23 -74 20q-29 -4 -55 -19q-26 -16 -50 -47q-25 -32 -49 -82q-25 -50 -50 -122h60zM792 0q-11 -45 -25 -78t-25 -56l-7 -13q-45 45 -91 74q-47 29 -96 45
q-50 16 -103 22t-111 6h-339q-22 0 -22 23v133q0 25 22 25h236q5 54 16 110t28 109t40 100q22 47 51 82q28 35 62 56q33 20 72 20q46 0 85 -22t71 -59t57 -85q25 -49 44 -102q18 -53 30 -107q11 -54 16 -102h139v-181h-150z" />
    <glyph glyph-name="uFEE6" unicode="&#x646;" horiz-adv-x="1232" arabic-form="final" 
d="M415 822l139 139l137 -139l-137 -137zM1127 0q-20 -81 -63 -165t-110 -153q-68 -69 -160 -113t-210 -44q-120 0 -219 39q-100 38 -171 106t-110 161t-39 202q0 60 11 118q11 57 30 110q19 52 45 99q25 47 53 87l48 -37q-48 -74 -70 -145q-23 -71 -23 -136q0 -87 34 -162
t92 -129q58 -55 136 -86q78 -32 165 -32q83 0 164 33q80 32 146 83q66 50 113 112q46 61 62 120q-29 118 -86 228q-57 109 -119 206l113 163q68 -116 113 -235q44 -120 62 -249h123v-181h-130z" />
    <glyph glyph-name="uFEE7" unicode="&#x646;" horiz-adv-x="679" arabic-form="initial" 
d="M290 767l-139 138l139 139l138 -139zM528 181q-16 52 -33 95t-36 83q-19 39 -40 78l-55 97l-11 17l132 152q66 -143 98 -275q31 -132 31 -235q0 -53 -4 -102q-4 -50 -9 -91h-622q-22 0 -22 23v133q0 25 22 25h549z" />
    <glyph glyph-name="uFEE8" unicode="&#x646;" horiz-adv-x="629" arabic-form="medial" 
d="M266 767l-139 137l139 140l138 -140zM-19 0q-22 0 -22 23v133q0 25 22 25h405q-15 52 -33 98q-19 45 -39 87q-21 42 -43 83l-62 104l133 152q66 -141 97 -275q30 -135 32 -249h187v-181h-677z" />
    <glyph glyph-name="uFEEA" unicode="&#x647;" horiz-adv-x="855" arabic-form="final" 
d="M662 0l-15 111l-106 -117q-26 9 -57 14t-63 8q-32 2 -62 3q-31 1 -57 1h-251l1 23q0 19 2 45q1 25 4 53q2 28 7 49q10 53 35 116q25 62 61 125t80 122q44 58 92 104q47 45 96 73q49 27 94 27q31 0 58 -27t51 -72q23 -46 43 -105t37 -123q16 -64 30 -128q14 -65 25 -121
h117v-181h-222zM453 209q37 0 68 -4q30 -4 59 -14q28 -10 63 -30q-18 76 -37 146q-19 69 -41 122q-23 53 -51 85q-29 31 -65 31q-35 0 -71 -22t-72 -65t-70 -105q-35 -62 -66 -143z" />
    <glyph glyph-name="uFEEB" unicode="&#x647;" horiz-adv-x="1311" arabic-form="initial" 
d="M329 181q-17 15 -33 34t-28 41q-13 22 -21 48q-8 25 -8 55q0 48 18 96t54 90q35 42 88 74q52 32 120 47q-73 50 -107 105q-35 54 -43 102l52 23q7 -29 32 -50q24 -21 60 -38t81 -31l95 -29q66 -20 140 -48q73 -28 142 -69q69 -42 128 -99q58 -58 93 -137q20 -51 30 -104
q9 -54 9 -105q0 -55 -8 -106q-9 -52 -22 -97t-28 -83t-28 -66q-20 24 -52 53q-33 28 -84 54q-52 25 -126 42q-75 17 -179 17h-705q-22 0 -22 23v133q0 25 22 25h330zM374 366q1 -37 13 -67q12 -31 35 -53q22 -22 52 -31t61 -2q31 6 58 25q27 18 49 48q21 30 33 68
q12 39 11 76q-2 36 -14 67q-12 30 -34 52t-52 31q-25 9 -55 3q-31 -6 -60 -25t-52 -49q-24 -30 -36 -68q-11 -38 -9 -75zM782 180q48 -3 91 -12q43 -10 83 -29t83 -51q15 89 2 168q-14 78 -52 143q-39 65 -99 116q-61 51 -140 86q30 -68 41 -129q11 -62 3 -115t-37 -97
q-30 -45 -81 -78q58 0 106 -2z" />
    <glyph glyph-name="uFEEC" unicode="&#x647;" horiz-adv-x="1332" arabic-form="medial" 
d="M1205 0q-13 -51 -29 -93q-17 -42 -31 -73q-20 24 -52 53q-33 28 -84 54q-52 25 -126 42q-75 17 -179 17h-705q-22 0 -22 23v133q0 25 22 25h330q-17 15 -33 34t-28 41q-13 22 -21 48q-8 25 -8 55q0 48 18 96t54 90q35 42 88 74q52 32 120 47q-73 50 -107 105
q-35 54 -43 102l52 23q7 -29 32 -50q24 -21 60 -38t81 -31l95 -29q66 -20 140 -48q73 -28 142 -69q69 -42 128 -99q58 -58 93 -137q20 -51 30 -104q9 -54 9 -105v-5h119v-181h-145zM782 180q48 -3 91 -12q43 -10 83 -29t83 -51q15 89 2 168q-14 78 -52 143q-39 65 -99 116
q-61 51 -140 86q30 -68 41 -129q11 -62 3 -115t-37 -97q-30 -45 -81 -78q58 0 106 -2zM374 366q1 -37 13 -67q12 -31 35 -53q22 -22 52 -31t61 -2q31 6 58 25q27 18 49 48q21 30 33 68q12 39 11 76q-2 36 -14 67q-12 30 -34 52t-52 31q-25 9 -55 3q-31 -6 -60 -25t-52 -49
q-24 -30 -36 -68q-11 -38 -9 -75z" />
    <glyph glyph-name="uFEEE" unicode="&#x648;" horiz-adv-x="729" arabic-form="final" 
d="M646 0q-9 -92 -27 -172t-47 -144q-34 -77 -84 -153q-50 -77 -118 -162l-186 155q74 50 131 108q57 57 99 118t71 124t47 126q-95 -1 -178 3q-84 4 -148 19q-64 14 -104 43q-41 28 -48 76q-9 50 -4 115q5 64 21 132q16 67 43 132q27 64 63 115q35 50 78 81q42 31 89 31
q61 0 113 -46q51 -47 90 -125q38 -79 64 -181q25 -103 35 -214h111v-181h-111zM538 181q-9 79 -28 147q-20 68 -48 119q-28 50 -63 79q-36 28 -76 28q-27 0 -50 -14q-24 -14 -43 -36q-20 -23 -35 -51q-16 -29 -27 -58t-16 -55q-6 -27 -6 -46q0 -29 27 -50q26 -21 70 -35
t102 -21q57 -7 120 -7h73z" />
    <glyph glyph-name="uFEF0" unicode="&#x649;" horiz-adv-x="1398" arabic-form="final" 
d="M1256 11q-14 -47 -42 -101q-28 -55 -69 -109q-42 -54 -98 -104t-126 -88q-71 -39 -157 -62t-188 -23q-93 0 -168 22t-133 60t-100 89q-42 50 -69 106t-40 115t-13 114q1 85 17 160q15 75 41 141q26 65 60 122q33 56 70 104q19 -17 29 -27q9 -11 24 -25q-69 -99 -99 -190
q-30 -92 -30 -178q0 -88 30 -163t83 -130t127 -86q74 -32 161 -32q98 0 188 26q90 25 167 67q76 42 137 96t101 111q-83 25 -148 54q-66 29 -116 71l-14 12q-11 8 -22 23q-11 14 -19 35q-9 20 -9 47v90q48 -45 102 -78q54 -34 122 -55q67 -22 151 -33t193 -11h19v-181h-28
q-22 0 -38 1q-16 0 -30 2q-15 1 -30 3z" />
    <glyph glyph-name=".notdef" horiz-adv-x="1024" 
d="M128 0v1254h768v-1254h-768zM256 128h512v998h-512v-998z" />
    <glyph glyph-name=".null" 
 />
    <glyph glyph-name="nonmarkingreturn" horiz-adv-x="406" 
 />
    <glyph glyph-name="space" unicode=" " horiz-adv-x="406" 
 />
    <glyph glyph-name="exclam" unicode="!" horiz-adv-x="474" 
d="M170 355l-76 1110l257 110l-49 -1134zM108 59l-44 41l31 29l117 122l89 -87l89 -82l-150 -151z" />
    <glyph glyph-name="percent" unicode="%" horiz-adv-x="1173" 
d="M185 1285l18 19q11 11 28 30l97 111q15 -14 38 -38l133 -147l-138 -162zM56 -78l804 1519h196l-801 -1519h-199zM685 193l18 19q11 11 28 30l97 111q15 -14 38 -38l133 -147l-138 -162z" />
    <glyph glyph-name="parenleft" unicode="(" horiz-adv-x="553" 
d="M456 -399q-200 224 -297 441t-97 437q0 108 26 221t77 226q50 113 125 224t174 216h19q-131 -226 -199 -448q-69 -222 -69 -445q0 -217 68 -433q67 -216 190 -439h-17z" />
    <glyph glyph-name="parenright" unicode=")" horiz-adv-x="556" 
d="M61 -399q123 223 191 439q67 216 67 433q0 223 -68 445q-69 222 -200 448h19q99 -105 174 -216t126 -224q50 -113 76 -226t26 -221q0 -220 -97 -437t-297 -441h-17z" />
    <glyph glyph-name="asterisk" unicode="*" horiz-adv-x="909" 
d="M807 1243l39 -119l-289 -98l182 -244l-100 -77l-184 251l-179 -251l-102 77l178 244l-289 98l39 119l291 -98v305h123v-305z" />
    <glyph glyph-name="plus" unicode="+" horiz-adv-x="1364" 
d="M614 688v467h136v-467h467v-135h-467v-467h-136v467h-467v135h467z" />
    <glyph glyph-name="comma" unicode="," horiz-adv-x="377" 
d="M193 -7q-16 20 -37 30q-21 9 -43 11q-23 1 -45 -5t-41 -17q15 45 36 71q20 26 44 39q23 12 47 15q24 2 46 0q24 -2 46 -12t39 -27t27 -40q10 -24 9 -52q-1 -51 -25 -107q-24 -57 -59 -111q-35 -55 -74 -103q-40 -49 -72 -82q-7 -7 -7 -5q-1 1 2 8l21 37q0 1 9 14l21 33
q13 21 28 49q14 27 27 58q13 30 22 61q8 31 8 59q0 24 -7 41q-7 19 -22 35z" />
    <glyph glyph-name="hyphen" unicode="-" horiz-adv-x="682" 
d="M592 565v-147h-502v147h502z" />
    <glyph glyph-name="period" unicode="." horiz-adv-x="445" 
d="M395 132q-17 -17 -50 -48l-74 -67q-15 -14 -28 -25t-27 -25l-92 75l-89 76q13 14 36 35l106 97q24 21 41 38q11 -11 24 -21z" />
    <glyph glyph-name="slash" unicode="/" horiz-adv-x="797" 
d="M133 -69q-35 12 -60 22l-56 21l623 1548l116 -45z" />
    <glyph glyph-name="zero" unicode="0" horiz-adv-x="615" 
d="M148 377l142 178l176 -131l-129 -175z" />
    <glyph glyph-name="zero" unicode="&#x6f0;" horiz-adv-x="615" 
d="M148 377l142 178l176 -131l-129 -175z" />
    <glyph glyph-name="zero" unicode="&#x660;" horiz-adv-x="615" 
d="M148 377l142 178l176 -131l-129 -175z" />
    <glyph glyph-name="one" unicode="1" horiz-adv-x="891" 
d="M315 718l99 194q162 -185 162 -529q0 -265 -91 -377q-18 6 -18 71q0 36 2 51v67q0 312 -154 523z" />
    <glyph glyph-name="one" unicode="&#x6f1;" horiz-adv-x="891" 
d="M315 718l99 194q162 -185 162 -529q0 -265 -91 -377q-18 6 -18 71q0 36 2 51v67q0 312 -154 523z" />
    <glyph glyph-name="one" unicode="&#x661;" horiz-adv-x="891" 
d="M315 718l99 194q162 -185 162 -529q0 -265 -91 -377q-18 6 -18 71q0 36 2 51v67q0 312 -154 523z" />
    <glyph glyph-name="two" unicode="2" horiz-adv-x="891" 
d="M675 935q20 0 20 -69q0 -115 -57 -190q-63 -82 -174 -82q49 -119 49 -278q0 -73 -18 -181q-25 -149 -65 -149q-12 0 -18 44q0 325 -110 534q-42 80 -107 145l99 214q50 -132 187 -132q85 0 135 64q14 23 28 45q23 35 31 35z" />
    <glyph glyph-name="two" unicode="&#x6f2;" horiz-adv-x="891" 
d="M675 935q20 0 20 -69q0 -115 -57 -190q-63 -82 -174 -82q49 -119 49 -278q0 -73 -18 -181q-25 -149 -65 -149q-12 0 -18 44q0 325 -110 534q-42 80 -107 145l99 214q50 -132 187 -132q85 0 135 64q14 23 28 45q23 35 31 35z" />
    <glyph glyph-name="two" unicode="&#x662;" horiz-adv-x="891" 
d="M675 935q20 0 20 -69q0 -115 -57 -190q-63 -82 -174 -82q49 -119 49 -278q0 -73 -18 -181q-25 -149 -65 -149q-12 0 -18 44q0 325 -110 534q-42 80 -107 145l99 214q50 -132 187 -132q85 0 135 64q14 23 28 45q23 35 31 35z" />
    <glyph glyph-name="three" unicode="3" horiz-adv-x="891" 
d="M758 967q20 0 20 -51q0 -100 -48 -190q-58 -108 -151 -108q-70 0 -97 69q-9 -37 -42 -64.5t-72 -30.5q51 -103 51 -268q0 -80 -20 -199q-27 -162 -69 -162q-10 0 -16 29v45q0 392 -201 748l75 186q25 -52 91 -146q28 -28 71 -28q120 0 152 113q14 47 27 47q7 0 27.5 -70
t75.5 -72q50 -1 72 29q13 19 25 76q9 47 29 47z" />
    <glyph glyph-name="three" unicode="&#x6f3;" horiz-adv-x="891" 
d="M758 967q20 0 20 -51q0 -100 -48 -190q-58 -108 -151 -108q-70 0 -97 69q-9 -37 -42 -64.5t-72 -30.5q51 -103 51 -268q0 -80 -20 -199q-27 -162 -69 -162q-10 0 -16 29v45q0 392 -201 748l75 186q25 -52 91 -146q28 -28 71 -28q120 0 152 113q14 47 27 47q7 0 27.5 -70
t75.5 -72q50 -1 72 29q13 19 25 76q9 47 29 47z" />
    <glyph glyph-name="three" unicode="&#x663;" horiz-adv-x="891" 
d="M758 967q20 0 20 -51q0 -100 -48 -190q-58 -108 -151 -108q-70 0 -97 69q-9 -37 -42 -64.5t-72 -30.5q51 -103 51 -268q0 -80 -20 -199q-27 -162 -69 -162q-10 0 -16 29v45q0 392 -201 748l75 186q25 -52 91 -146q28 -28 71 -28q120 0 152 113q14 47 27 47q7 0 27.5 -70
t75.5 -72q50 -1 72 29q13 19 25 76q9 47 29 47z" />
    <glyph glyph-name="four" unicode="4" horiz-adv-x="891" 
d="M532 986l-55 -197q-2 -2 -15 -11q-21 -15 -56 -38q-94 -61 -94 -85q0 -12 61 -42q39 -20 77 -39q29 -23 29 -63q0 -46 -53 -141q-67 -121 -75 -143q0 -40 156 -40q130 0 170 22l-56 -132q-35 -81 -193 -81q-62 0 -116 20q-74 26 -74 77t60.5 177t60.5 135q0 15 -73 42.5
t-73 63.5q0 127 100.5 275.5t218.5 199.5z" />
    <glyph glyph-name="four" unicode="&#x6f4;" horiz-adv-x="891" 
d="M532 986l-55 -197q-2 -2 -15 -11q-21 -15 -56 -38q-94 -61 -94 -85q0 -12 61 -42q39 -20 77 -39q29 -23 29 -63q0 -46 -53 -141q-67 -121 -75 -143q0 -40 156 -40q130 0 170 22l-56 -132q-35 -81 -193 -81q-62 0 -116 20q-74 26 -74 77t60.5 177t60.5 135q0 15 -73 42.5
t-73 63.5q0 127 100.5 275.5t218.5 199.5z" />
    <glyph glyph-name="four" unicode="&#x664;" horiz-adv-x="891" 
d="M532 986l-55 -197q-2 -2 -15 -11q-21 -15 -56 -38q-94 -61 -94 -85q0 -12 61 -42q39 -20 77 -39q29 -23 29 -63q0 -46 -53 -141q-67 -121 -75 -143q0 -40 156 -40q130 0 170 22l-56 -132q-35 -81 -193 -81q-62 0 -116 20q-74 26 -74 77t60.5 177t60.5 135q0 15 -73 42.5
t-73 63.5q0 127 100.5 275.5t218.5 199.5z" />
    <glyph glyph-name="five" unicode="5" horiz-adv-x="891" 
d="M470 890q68 2 122 -77q107 -158 107 -436q0 -160 -62 -258q-75 -117 -226 -117q-99 0 -159 71.5t-60 194.5q0 120 44.5 269t108 250.5t125.5 102.5zM453 635q-72 0 -125 -118q-45 -99 -45 -182q0 -46 55 -74q45 -24 95 -24q47 0 106 22q73 27 73 65q0 100 -41 205.5
t-118 105.5z" />
    <glyph glyph-name="five" unicode="&#x6f5;" horiz-adv-x="891" 
d="M470 890q68 2 122 -77q107 -158 107 -436q0 -160 -62 -258q-75 -117 -226 -117q-99 0 -159 71.5t-60 194.5q0 120 44.5 269t108 250.5t125.5 102.5zM453 635q-72 0 -125 -118q-45 -99 -45 -182q0 -46 55 -74q45 -24 95 -24q47 0 106 22q73 27 73 65q0 100 -41 205.5
t-118 105.5z" />
    <glyph glyph-name="five" unicode="&#x665;" horiz-adv-x="891" 
d="M470 890q68 2 122 -77q107 -158 107 -436q0 -160 -62 -258q-75 -117 -226 -117q-99 0 -159 71.5t-60 194.5q0 120 44.5 269t108 250.5t125.5 102.5zM453 635q-72 0 -125 -118q-45 -99 -45 -182q0 -46 55 -74q45 -24 95 -24q47 0 106 22q73 27 73 65q0 100 -41 205.5
t-118 105.5z" />
    <glyph glyph-name="six" unicode="6" horiz-adv-x="891" 
d="M622 957v-130q0 -6 -1 -48.5t-1 -79.5q0 -303 100 -496l-100 -191q-124 193 -124 456q0 124 21 254q-63 -19 -138 -19q-157 0 -209 74q0 127 13 180q4 10 10 10q45 -25 111 -57q48 -16 116 -16q65 0 107 18q39 17 58.5 38t24.5 21q7 0 12 -14z" />
    <glyph glyph-name="six" unicode="&#x6f6;" horiz-adv-x="891" 
d="M622 957v-130q0 -6 -1 -48.5t-1 -79.5q0 -303 100 -496l-100 -191q-124 193 -124 456q0 124 21 254q-63 -19 -138 -19q-157 0 -209 74q0 127 13 180q4 10 10 10q45 -25 111 -57q48 -16 116 -16q65 0 107 18q39 17 58.5 38t24.5 21q7 0 12 -14z" />
    <glyph glyph-name="six" unicode="&#x666;" horiz-adv-x="891" 
d="M622 957v-130q0 -6 -1 -48.5t-1 -79.5q0 -303 100 -496l-100 -191q-124 193 -124 456q0 124 21 254q-63 -19 -138 -19q-157 0 -209 74q0 127 13 180q4 10 10 10q45 -25 111 -57q48 -16 116 -16q65 0 107 18q39 17 58.5 38t24.5 21q7 0 12 -14z" />
    <glyph glyph-name="seven" unicode="7" horiz-adv-x="1095" 
d="M914 986l-24 -238q-209 -209 -272 -474q-14 -60 -42 -189q-22 -97 -45 -97q-12 3 -35 99q-32 142 -40 168q-25 85 -85 209q-64 132 -191 280l30 229q58 -48 165 -225q112 -185 166 -334q53 148 161 326.5t212 245.5z" />
    <glyph glyph-name="seven" unicode="&#x6f7;" horiz-adv-x="1095" 
d="M914 986l-24 -238q-209 -209 -272 -474q-14 -60 -42 -189q-22 -97 -45 -97q-12 3 -35 99q-32 142 -40 168q-25 85 -85 209q-64 132 -191 280l30 229q58 -48 165 -225q112 -185 166 -334q53 148 161 326.5t212 245.5z" />
    <glyph glyph-name="seven" unicode="&#x667;" horiz-adv-x="1095" 
d="M914 986l-24 -238q-209 -209 -272 -474q-14 -60 -42 -189q-22 -97 -45 -97q-12 3 -35 99q-32 142 -40 168q-25 85 -85 209q-64 132 -191 280l30 229q58 -48 165 -225q112 -185 166 -334q53 148 161 326.5t212 245.5z" />
    <glyph glyph-name="eight" unicode="8" horiz-adv-x="1095" 
d="M558 981q23 0 55 -136q86 -365 300 -622l-35 -225q-82 86 -183 264q-90 157 -143 291q-45 -143 -148 -313q-118 -196 -221 -256l10 227q230 238 296 537q29 130 37 179q8 54 32 54z" />
    <glyph glyph-name="eight" unicode="&#x6f8;" horiz-adv-x="1095" 
d="M558 981q23 0 55 -136q86 -365 300 -622l-35 -225q-82 86 -183 264q-90 157 -143 291q-45 -143 -148 -313q-118 -196 -221 -256l10 227q230 238 296 537q29 130 37 179q8 54 32 54z" />
    <glyph glyph-name="eight" unicode="&#x668;" horiz-adv-x="1095" 
d="M558 981q23 0 55 -136q86 -365 300 -622l-35 -225q-82 86 -183 264q-90 157 -143 291q-45 -143 -148 -313q-118 -196 -221 -256l10 227q230 238 296 537q29 130 37 179q8 54 32 54z" />
    <glyph glyph-name="nine" unicode="9" horiz-adv-x="891" 
d="M399 955q100 0 134 -74q22 -49 22 -162t46 -287q48 -184 104 -268l-77 -184q-60 61 -114 224q-51 151 -54 250q-20 -35 -63 -61t-81 -26q-40 0 -85 49t-45 101q0 260 124 387q49 51 89 51zM371 748q-61 -11 -93 -104q0 -32 28 -54t61 -22q85 0 85 71q0 109 -81 109z" />
    <glyph glyph-name="nine" unicode="&#x6f9;" horiz-adv-x="891" 
d="M399 955q100 0 134 -74q22 -49 22 -162t46 -287q48 -184 104 -268l-77 -184q-60 61 -114 224q-51 151 -54 250q-20 -35 -63 -61t-81 -26q-40 0 -85 49t-45 101q0 260 124 387q49 51 89 51zM371 748q-61 -11 -93 -104q0 -32 28 -54t61 -22q85 0 85 71q0 109 -81 109z" />
    <glyph glyph-name="nine" unicode="&#x669;" horiz-adv-x="891" 
d="M399 955q100 0 134 -74q22 -49 22 -162t46 -287q48 -184 104 -268l-77 -184q-60 61 -114 224q-51 151 -54 250q-20 -35 -63 -61t-81 -26q-40 0 -85 49t-45 101q0 260 124 387q49 51 89 51zM371 748q-61 -11 -93 -104q0 -32 28 -54t61 -22q85 0 85 71q0 109 -81 109z" />
    <glyph glyph-name="colon" unicode=":" horiz-adv-x="426" 
d="M200 531q37 0 61.5 -24t24.5 -61q0 -86 -86 -89q-85 -3 -85 85q0 89 85 89zM203 174q38 0 63 -22q22 -25 22 -59q0 -89 -85 -93q-38 -2 -61 24t-23 63t23.5 62t60.5 25z" />
    <glyph glyph-name="equal" unicode="=" horiz-adv-x="1233" 
d="M113 176h978v-103h-978v103zM113 450h978v-105h-978v105z" />
    <glyph glyph-name="bracketleft" unicode="[" horiz-adv-x="542" 
d="M111 1291h290v-81h-194v-1784h194v-85h-290v1950z" />
    <glyph glyph-name="bracketright" unicode="]" horiz-adv-x="542" 
d="M401 1291h-290v-81h195v-1784h-195v-85h290v1950z" />
    <glyph glyph-name="braceleft" unicode="{" horiz-adv-x="499" 
d="M353 1219q-18 12 -41 12q-79 0 -79 -130q0 -83 37 -197q42 -132 42 -207q0 -144 -121 -253q37 -18 68 -81q9 -17 19 -47q2 -8 8 -25q1 -3 6 -21q22 -56 22 -116q0 -87 -44 -215q-50 -143 -51 -182q-1 -62 28 -107.5t63 -45.5q18 0 38 15q0 -81 -66 -81q-71 0 -110 80
q-30 63 -30 141q0 96 34 211q45 151 45 255q0 181 -126 209q112 57 112 223q0 82 -24 166q-41 142 -41 227q0 114 44.5 178.5t95.5 64.5q62 0 71 -74z" />
    <glyph glyph-name="braceright" unicode="}" horiz-adv-x="517" 
d="M149 -401q22 -13 43 -13q81 0 81 134q0 86 -39 205q-42 130 -42 217q0 151 126 263q-62 40 -88 126q-40 135 -40 176q0 95 65 284q31 92 32 130q2 42 -12 81q-27 77 -81 77q-21 0 -41 -14q0 85 70 85q76 0 115 -82q31 -63 31 -149q0 -97 -37 -219q-47 -156 -47 -267
q0 -184 132 -217q-116 -64 -116 -233q0 -88 25 -173q43 -147 43 -237q0 -117 -45 -184q-47 -70 -101 -70q-64 0 -74 80z" />
    <glyph glyph-name="guillemotleft" unicode="&#xab;" horiz-adv-x="854" 
d="M711 129l-340 400l340 393h87l-226 -393l232 -400h-93zM408 129l-338 400l340 393h87l-226 -393l226 -400h-89z" />
    <glyph glyph-name="periodcentered" unicode="&#xb7;" horiz-adv-x="406" 
d="M201 517q-77 0 -77 83q0 85 77 85q75 0 75 -85q0 -34 -21 -58.5t-54 -24.5z" />
    <glyph glyph-name="periodcentered" unicode="&#x2219;" horiz-adv-x="406" 
d="M201 517q-77 0 -77 83q0 85 77 85q75 0 75 -85q0 -34 -21 -58.5t-54 -24.5z" />
    <glyph glyph-name="periodcentered" unicode="&#x2d9;" horiz-adv-x="406" 
d="M201 517q-77 0 -77 83q0 85 77 85q75 0 75 -85q0 -34 -21 -58.5t-54 -24.5z" />
    <glyph glyph-name="guillemotright" unicode="&#xbb;" horiz-adv-x="854" 
d="M357 129l226 400l-226 393h87l340 -393l-338 -400h-89zM50 129l232 400l-226 393h87l340 -393l-340 -400h-93z" />
    <glyph glyph-name="multiply" unicode="&#xd7;" horiz-adv-x="937" 
d="M738 144l-276 272l-273 -272l-76 73l270 276l-274 279l84 69l269 -273l276 273l73 -73l-276 -275l278 -276z" />
    <glyph glyph-name="divide" unicode="&#xf7;" horiz-adv-x="937" 
d="M555 764q0 -41 -26 -69q-29 -30 -71 -30q-35 0 -64 30.5t-29 68.5q0 93 97 93q93 0 93 -93zM93 434v107h747v-107h-747zM555 213q0 -67 -56 -89q-15 -9 -37 -9q-42 0 -69.5 28t-27.5 70q0 40 28.5 68.5t68.5 28.5q36 0 64.5 -28t28.5 -69z" />
    <glyph glyph-name="u060C" unicode="&#x60c;" horiz-adv-x="502" 
d="M331 684q3 1 -3 -9l-38 -78q-23 -47 -43 -100t-34 -108q-15 -55 -15 -103q0 -36 10 -65q10 -30 30 -60q26 -36 62 -52t75 -16q25 0 48 6q-19 -46 -43 -77q-24 -32 -50 -51t-52 -26t-50 -4h1q-26 4 -50 18q-25 13 -44 36q-19 22 -31 53t-12 70q0 70 22 148q21 78 55 153
t76 143q41 67 80 117q3 4 6 5z" />
    <glyph glyph-name="u061B" unicode="&#x61b;" horiz-adv-x="547" 
d="M292 -170q-3 -2 -6 -6l-104 102q-20 19 -36 33l29 27l89 93l109 -105q18 -17 32 -29l-13 -15zM364 944q3 1 -3 -9l-38 -78q-23 -47 -43 -100t-34 -108q-15 -55 -15 -103q0 -36 10 -65q10 -30 30 -60q26 -36 62 -52t75 -16q25 0 48 6q-19 -46 -43 -77q-24 -32 -50 -51
t-52 -26t-50 -4h1q-26 4 -50 18q-25 13 -44 36q-19 22 -31 53t-12 70q0 70 22 148q21 78 55 153t76 143q41 67 80 117q3 4 6 5z" />
    <glyph glyph-name="u061F" unicode="&#x61f;" horiz-adv-x="738" 
d="M404 963q96 0 159 -62.5t63 -158.5q-1 -7 -4 -41q-21 -91 -96 -91q-36 0 -65 25q-27 22 -30 55q0 26 18 50t43 24q35 0 59 -36q0 52 -34 90.5t-90 38.5q-58 0 -108 -47.5t-50 -104.5q0 -58 22 -93q15 -23 79 -93q93 -101 93 -190q0 -37 -9 -77q-14 -57 -39 -57
q-14 0 -24 48q-5 31 -11 63q-6 26 -52 85q-33 42 -146 120q-94 65 -96 188q-1 125 99 198q90 66 219 66zM326 79q0 79 78 79q80 0 80 -79t-80 -79q-78 0 -78 79z" />
    <glyph glyph-name="u0621" unicode="&#x621;" horiz-adv-x="677" 
d="M562 -10q-149 -42 -250 -94q-102 -53 -163 -99q-19 -14 -36 -29l-35 -31q7 69 42 131q35 61 92 115q-82 15 -118 57q-37 42 -37 99q0 41 14 88q13 46 38 91q24 45 58 86q33 40 73 70q39 30 84 47q44 17 90 14q24 -2 46 -5q22 -4 44 -15l-19 -171q-19 6 -36 8q-17 1 -37 1
q-44 0 -87 -14q-44 -14 -83 -40q-40 -27 -74 -66t-59 -89q62 -49 147 -58q8 -1 18 -1q9 -1 21 -1q58 0 139 18q80 18 186 66z" />
    <glyph glyph-name="u0640" unicode="&#x640;" horiz-adv-x="465" 
d="M485 0h-505v179h505v-179z" />
    <glyph glyph-name="u064B" unicode="&#x64b;" 
d="M91 1757l385 150l-20 -91l-393 -150zM132 1966l385 150l-21 -89l-395 -152z" />
    <glyph glyph-name="u064C" unicode="&#x64c;" 
d="M440 2040q63 0 63 -84q0 -66 -48 -132q-59 -79 -132 -115q-82 -41 -209 -79q-54 -16 -81 -16q-33 0 -33 16q0 11 30 30q20 12 40 25q42 31 48 36q49 40 49 69q0 24 -39 24q-33 -3 -91 -18q0 51 51.5 86.5t88.5 35.5q75 0 75 -71q0 -39 -26 -103q12 0 90.5 48t95.5 73
q-57 25 -57 97q0 78 85 78z" />
    <glyph glyph-name="u064D" unicode="&#x64d;" 
d="M26 -1292l385 150l-20 -92l-393 -150zM66 -1084l386 150l-21 -89l-395 -152z" />
    <glyph glyph-name="u064E" unicode="&#x64e;" 
d="M28 1828l386 150l-21 -91l-393 -150z" />
    <glyph glyph-name="u064F" unicode="&#x64f;" 
d="M385 2052q63 0 63 -85q0 -71 -58 -145q-53 -68 -122 -100q-81 -38 -209 -77q-13 -8 -37 -8q-22 0 -22 12q0 25 99 71q93 42 158 83q87 54 100 75q-65 15 -65 67q0 34 30 70.5t63 36.5z" />
    <glyph glyph-name="u0650" unicode="&#x650;" 
d="M64 -1095l385 150l-20 -90l-393 -152z" />
    <glyph glyph-name="u0651" unicode="&#x651;" 
d="M248 1850q-57 -87 -142 -87q-60 0 -85 53q-18 38 -18 66q0 34 22 90q25 64 53 64q20 0 20 -20q0 -8 -12 -49q-15 -32 -15 -54q0 -41 61 -41q56 10 76 43q17 40 35 81q27 61 48 61q18 0 18 -21l-4 -24l-10 -59q0 -38 38 -44q31 0 41 24q5 13 10 33q8 11 10 22l6 24
q15 56 30 59q23 0 23 -29q0 -21 -6 -54l-8 -29l-2 -12q-40 -144 -118 -144q-43 0 -71 47z" />
    <glyph glyph-name="u0652" unicode="&#x652;" 
d="M257 2103q65 0 101 -57q31 -49 31 -119q0 -98 -51 -172q-56 -83 -150 -83q-116 0 -116 142q0 97 56.5 193t128.5 96zM142 1866q0 -63 74 -63q33 0 67 14q41 18 45 45q-27 118 -93 118q-33 0 -63 -34.5t-30 -79.5z" />
    <glyph glyph-name="zeronojoin" unicode="&#x200c;" horiz-adv-x="45" 
 />
    <glyph glyph-name="zerojoin" unicode="&#x200d;" horiz-adv-x="45" 
 />
    <glyph glyph-name="lefttoright" unicode="&#x200e;" horiz-adv-x="32" 
d="M215 1144l-95 -98l-25 20l63 63h-126v-1129h-32v1160h154l-59 59l25 22z" />
    <glyph glyph-name="righttoleft" unicode="&#x200f;" horiz-adv-x="32" 
d="M32 0h-32v1129h-126l61 -63l-20 -20l-100 98l100 97l20 -22l-59 -59h156v-1160z" />
    <glyph glyph-name="quoteleft" unicode="&#x2018;" horiz-adv-x="350" 
d="M156 1189l-27 432q-2 34 12 66q16 38 47 38q63 0 57 -96l-28 -440h-61z" />
    <glyph glyph-name="quoteright" unicode="&#x2019;" horiz-adv-x="350" 
d="M156 1725l-27 -432q-2 -34 12 -65q16 -39 47 -39q63 0 57 96l-28 440h-61z" />
    <glyph glyph-name="quotedblleft" unicode="&#x201c;" horiz-adv-x="564" 
d="M130 1214l-27 432q-2 34 12 65q16 39 47 39q63 0 57 -96l-28 -440h-61zM365 1214l-28 432q-3 39 16 75q15 29 43 29q62 0 56 -96l-28 -440h-59z" />
    <glyph glyph-name="quotedblright" unicode="&#x201d;" horiz-adv-x="564" 
d="M130 1750l-27 -432q-2 -34 12 -65q16 -39 47 -39q63 0 57 96l-28 440h-61zM365 1750l-28 -432q-3 -39 16 -75q15 -29 43 -29q62 0 56 96l-28 440h-59z" />
    <glyph glyph-name="guilsinglleft" unicode="&#x2039;" horiz-adv-x="705" 
d="M569 824q-148 -97 -224.5 -226.5t-76.5 -264.5q0 -146 88 -279q79 -120 213 -205q-215 93 -324 222t-109 267q0 204 212 367q98 75 221 119z" />
    <glyph glyph-name="guilsinglright" unicode="&#x203a;" horiz-adv-x="705" 
d="M136 824q148 -97 224.5 -226.5t76.5 -264.5q0 -146 -88 -279q-80 -120 -213 -205q214 93 323.5 222t109.5 267q0 204 -213 367q-97 75 -220 119z" />
    <glyph glyph-name="uE820" unicode="&#xe820;" 
d="M120 1829l386 150l-21 -91l-393 -150z" />
    <glyph glyph-name="uE821" unicode="&#xe821;" 
d="M385 1976q63 0 63 -85q0 -71 -58 -145q-53 -68 -122 -100q-81 -38 -209 -77q-13 -8 -37 -8q-22 0 -22 12q0 25 99 71q93 42 158 83q87 54 100 75q-65 15 -65 67q0 34 30 70.5t63 36.5z" />
    <glyph glyph-name="uE822" unicode="&#xe822;" 
d="M253 1966q65 0 101 -57q31 -49 31 -119q0 -98 -51 -172q-56 -83 -150 -83q-116 0 -116 142q0 97 56.5 193t128.5 96zM138 1729q0 -63 74 -63q33 0 67 14q41 18 45 45q-27 118 -93 118q-33 0 -63 -34.5t-30 -79.5z" />
    <glyph glyph-name="uE823" unicode="&#xe823;" 
d="M28 1707l385 150l-20 -91l-393 -150zM69 1916l385 150l-21 -89l-395 -152z" />
    <glyph glyph-name="uE824" unicode="&#xe824;" 
d="M536 2008q63 0 63 -84q0 -66 -48 -132q-59 -79 -132 -115q-82 -41 -209 -79q-54 -16 -81 -16q-33 0 -33 16q0 11 30 30q20 12 40 25q42 31 48 36q49 40 49 69q0 24 -39 24q-33 -3 -91 -18q0 51 51.5 86.5t88.5 35.5q75 0 75 -71q0 -39 -26 -103q12 0 90.5 48t95.5 73
q-57 25 -57 97q0 78 85 78z" />
    <glyph glyph-name="uE825" unicode="&#xe825;" 
d="M367 1781q-57 -87 -142 -87q-60 0 -85 53q-18 38 -18 66q0 34 22 90q25 64 53 64q20 0 20 -20q0 -8 -12 -49q-15 -32 -15 -54q0 -41 61 -41q56 10 76 43q17 40 35 81q27 61 48 61q18 0 18 -21l-4 -24l-10 -59q0 -38 38 -44q31 0 41 24q5 13 10 33q8 11 10 22l6 24
q15 56 30 59q23 0 23 -29q0 -21 -6 -54l-8 -29l-2 -12q-40 -144 -118 -144q-43 0 -71 47z" />
    <glyph glyph-name="uE826" unicode="&#xe826;" 
d="M-37 -637l385 150l-20 -90l-393 -152z" />
    <glyph glyph-name="uE827" unicode="&#xe827;" 
d="M-74 -714l385 150l-20 -92l-393 -150zM-34 -506l386 150l-21 -89l-395 -152z" />
    <glyph glyph-name="uE828" unicode="&#xe828;" 
d="M379 1026q-57 -87 -142 -87q-60 0 -85 53q-18 38 -18 66q0 34 22 90q25 64 53 64q20 0 20 -20q0 -8 -12 -49q-15 -32 -15 -54q0 -41 61 -41q56 10 76 43q17 40 35 81q27 61 48 61q18 0 18 -21l-4 -24l-10 -59q0 -38 38 -44q31 0 41 24q5 13 10 33q8 11 10 22l6 24
q15 56 30 59q23 0 23 -29q0 -21 -6 -54l-8 -29l-2 -12q-40 -144 -118 -144q-43 0 -71 47zM191 1380l386 150l-21 -91l-393 -150z" />
    <glyph glyph-name="uE829" unicode="&#xe829;" 
d="M393 1036q-57 -87 -142 -87q-60 0 -85 53q-18 39 -18 67q0 34 22 89q25 65 53 65q20 0 20 -21q0 -8 -12 -48q-14 -33 -14 -55q0 -41 61 -41q56 10 75 43q18 41 35 82q28 60 48 60q18 0 18 -20l-4 -25l-10 -59q0 -38 39 -44q31 0 40 24q5 14 10 33q8 11 10 21t6 25
q15 56 31 59q22 0 22 -28q0 -21 -6 -55l-8 -29l-2 -11q-40 -145 -118 -145q-42 0 -71 47zM531 1790q63 0 63 -85q0 -71 -58 -145q-53 -68 -122 -100q-81 -38 -209 -77q-13 -8 -37 -8q-22 0 -22 12q0 25 99 71q93 42 158 83q87 54 100 75q-65 16 -65 67q0 34 30 70.5t63 36.5
z" />
    <glyph glyph-name="uE82A" unicode="&#xe82a;" 
d="M393 1036q-57 -87 -142 -87q-60 0 -85 53q-18 39 -18 67q0 34 22 89q25 65 53 65q20 0 20 -21q0 -8 -12 -48q-14 -33 -14 -55q0 -41 61 -41q56 10 75 43q18 41 35 82q28 60 48 60q18 0 18 -20l-4 -25l-10 -59q0 -38 39 -44q31 0 40 24q5 14 10 33q8 11 10 21t6 25
q15 56 31 59q22 0 22 -28q0 -21 -6 -55l-8 -29l-2 -11q-40 -145 -118 -145q-42 0 -71 47zM164 1378l386 150l-21 -91l-393 -150zM205 1587l385 150l-20 -89l-395 -152z" />
    <glyph glyph-name="uE82B" unicode="&#xe82b;" 
d="M396 1012q-57 -87 -142 -87q-60 0 -85 53q-18 38 -18 66q0 34 22 90q25 64 53 64q20 0 20 -20q0 -8 -12 -49q-15 -32 -15 -54q0 -41 61 -41q56 10 76 43q17 40 35 81q27 61 48 61q18 0 18 -21l-4 -24l-10 -59q0 -38 38 -44q31 0 41 24q5 13 10 33q8 11 10 22l6 24
q15 56 30 59q23 0 23 -29q0 -21 -6 -54l-8 -29l-2 -12q-40 -144 -118 -144q-43 0 -71 47zM545 1736q63 0 63 -84q0 -66 -48 -132q-59 -79 -132 -115q-82 -41 -209 -79q-54 -16 -81 -16q-33 0 -33 16q0 11 30 30q20 12 40 25q42 31 48 36q49 40 49 69q0 24 -39 24
q-33 -3 -91 -18q0 51 51.5 86.5t88.5 35.5q75 0 75 -71q0 -39 -26 -103q12 0 90.5 48t95.5 73q-57 25 -57 97q0 78 85 78z" />
    <glyph glyph-name="uE82C" unicode="&#xe82c;" 
d="M411 1300q-57 -87 -142 -87q-60 0 -85 53q-18 38 -18 66q0 34 22 90q25 64 53 64q20 0 20 -20q0 -8 -12 -49q-14 -32 -14 -54q0 -41 61 -41q56 10 75 43q18 41 35 81q28 61 48 61q18 0 18 -21l-4 -24l-10 -59q0 -38 39 -44q31 0 40 24q5 13 10 33q8 11 10 22l6 24
q15 56 31 59q22 0 22 -29q0 -21 -6 -54l-8 -29l-2 -12q-40 -144 -118 -144q-42 0 -71 47zM176 1016l385 150l-20 -89l-395 -152z" />
    <glyph glyph-name="uE82D" unicode="&#xe82d;" 
d="M434 1482q-57 -87 -142 -87q-60 0 -85 53q-18 39 -18 67q0 34 21 89q26 65 54 65q20 0 20 -21q0 -8 -12 -48q-15 -33 -15 -55q0 -41 61 -41q56 11 75 43l36 82q27 60 48 60q18 0 18 -20l-5 -25l-9 -59q0 -38 38 -44q31 0 41 24q5 14 10 33q8 11 10 21t6 25q15 56 30 59
q23 0 23 -28q0 -21 -6 -55l-8 -29l-2 -11q-40 -144 -118 -144q-43 0 -71 46zM166 983l385 150l-20 -91l-393 -150zM207 1192l385 150l-21 -89l-395 -152z" />
    <glyph glyph-name="NULL" 
 />
  </font>
</defs>
</svg>
